<?xml version="1.0" standalone="no"?>
<!DOCTYPE svg PUBLIC "-//W3C//DTD SVG 1.1//EN" "http://www.w3.org/Graphics/SVG/1.1/DTD/svg11.dtd" >
<svg xmlns="http://www.w3.org/2000/svg">
<metadata>
This is a custom SVG webfont generated by Font Squirrel.
Copyright   : Generated in 2010 by FontLab Studio Copyright info pending
</metadata>
<defs>
<font id="OmnesSemibold" horiz-adv-x="522" >
<font-face units-per-em="2048" ascent="1434" descent="-614" />
<missing-glyph horiz-adv-x="348" />
<glyph unicode=" "  horiz-adv-x="348" />
<glyph unicode="&#x09;" horiz-adv-x="348" />
<glyph unicode="&#xa0;" horiz-adv-x="348" />
<glyph unicode="!" horiz-adv-x="567" d="M115 1161q-18 84 21.5 133t119.5 49h51q82 0 123 -49t23 -133l-80 -657q-20 -92 -76 -92h-31q-49 0 -71 92zM127 121v29q0 135 137 135h35q139 0 139 -135v-29q0 -135 -139 -135h-35q-137 0 -137 135z" />
<glyph unicode="&#x22;" horiz-adv-x="880" d="M96 1184q-25 156 146 155q172 0 147 -155l-59 -383q-14 -74 -70 -74h-35q-55 0 -67 74zM489 1184q-25 156 146 155q172 0 147 -155l-61 -383q-12 -74 -68 -74h-35q-31 0 -46 17.5t-23 56.5z" />
<glyph unicode="#" horiz-adv-x="1390" d="M16 393v33q0 92 119 92h178l88 289h-110q-119 0 -119 92v33q0 90 119 90h178l96 313q4 12 33 13q43 0 85 -35t42 -99q0 -33 -14 -75l-37 -117h264l96 313q4 12 33 13q43 0 85 -35t42 -99q0 -33 -14 -75l-37 -117h112q119 0 119 -90v-31q0 -94 -119 -94h-178l-90 -289h111 q119 0 119 -90v-33q0 -92 -119 -92h-176l-97 -313q-4 -10 -32 -10q-43 0 -85 34.5t-42 98.5q0 33 14 75l35 115h-262l-97 -313q-4 -10 -32 -10q-43 0 -85 34.5t-42 98.5q0 33 14 75l35 115h-111q-119 0 -119 90zM516 516h266l92 293h-268z" />
<glyph unicode="$" horiz-adv-x="1148" d="M66 256q0 39 25.5 76t51 54t29.5 13q61 -74 167.5 -123t221.5 -49q109 0 169.5 42t60.5 112q0 41 -19.5 69.5t-66 49t-83 32t-108.5 27.5q-66 14 -114 28.5t-109.5 44.5t-100 68.5t-66.5 100t-28 139.5q0 147 96.5 247.5t264.5 131.5v76q0 139 116 139h13q61 0 88.5 -33 t27.5 -106v-70q164 -18 258.5 -83.5t94.5 -147.5q0 -41 -27 -80t-53.5 -57.5t-30.5 -12.5q-59 70 -153.5 114t-192.5 44q-102 0 -161.5 -42t-59.5 -112q0 -72 63.5 -105.5t206.5 -64.5q68 -14 119 -29.5t114.5 -46t104.5 -69.5t69.5 -100.5t28.5 -139.5q0 -156 -101 -257 t-282 -130v-80q0 -139 -118 -139h-11q-63 0 -89.5 33t-26.5 106v76q-180 18 -284.5 91t-104.5 163z" />
<glyph unicode="%" horiz-adv-x="1511" d="M37 1012v16q0 139 94 228.5t243.5 89.5t242 -88.5t92.5 -227.5v-16q0 -139 -94.5 -228.5t-241.5 -89.5q-150 0 -243 88.5t-93 227.5zM145 78q0 47 56 104l1030 1168q6 6 37.5 -3.5t61.5 -36t30 -59.5q0 -47 -53 -106l-1033 -1168q-6 -6 -36.5 4.5t-61.5 37t-31 59.5z M238 1006q0 -68 37.5 -110t99.5 -42q59 0 97 41t38 111v30q0 70 -39 111t-98 41q-61 0 -98 -40t-37 -112v-30zM803 297v16q0 139 94 228.5t244 89.5q147 0 240.5 -88t93.5 -228v-16q0 -139 -94.5 -228t-241.5 -89q-150 0 -243 88t-93 227zM1004 291q0 -68 37.5 -109 t99.5 -41q59 0 97 40t38 110v31q0 70 -39 111.5t-98 41.5q-61 0 -98 -41t-37 -112v-31z" />
<glyph unicode="&#x26;" horiz-adv-x="1406" d="M39 373q0 266 307 372q-119 119 -119 263q0 152 114 248t298 96q168 0 271.5 -89t103.5 -231q0 -225 -291 -319l252 -219q37 70 86 217q29 76 62.5 106.5t86.5 30.5q39 0 71 -18.5t46 -36t12 -23.5q-53 -231 -194 -428l268 -231q4 -4 -10 -34t-55 -60.5t-93 -30.5 q-96 0 -172 84l-94 90q-186 -186 -452 -187q-231 0 -364.5 105t-133.5 295zM299 401q0 -102 71.5 -161.5t186.5 -59.5q154 0 277 127l-357 318q-178 -72 -178 -224zM489 1004q0 -96 95 -187q199 61 198 193q0 63 -41 104t-104 41q-70 0 -109 -42.5t-39 -108.5z" />
<glyph unicode="'" horiz-adv-x="487" d="M96 1184q-25 156 146 155q172 0 147 -155l-59 -383q-14 -74 -70 -74h-35q-55 0 -67 74z" />
<glyph unicode="(" horiz-adv-x="829" d="M78 469q0 358 189.5 615t412.5 257q137 0 137 -122q0 -33 -18.5 -62t-30.5 -33q-190 -47 -295.5 -226t-105.5 -429q0 -254 105.5 -432t295.5 -225q12 -4 30.5 -33t18.5 -62q0 -123 -137 -123q-225 0 -413.5 254t-188.5 621z" />
<glyph unicode=")" horiz-adv-x="829" d="M12 -283q0 33 18.5 61.5t30.5 33.5q190 47 296 225t106 432q0 250 -105.5 429t-296.5 226q-12 4 -30.5 33t-18.5 62q0 123 138 122q223 0 412.5 -257t189.5 -615q0 -367 -188.5 -621t-413.5 -254q-138 0 -138 123z" />
<glyph unicode="*" horiz-adv-x="841" d="M42 1018.5q-9 21.5 1 58.5l2 8q10 35 30.5 47.5t67.5 4.5l179 -39l20 174q8 47 25.5 62.5t54.5 15.5h8q35 0 53.5 -15.5t26.5 -62.5l16 -174l176 39q82 12 101 -52l2 -8q12 -35 3 -57.5t-52 -42.5l-162 -74l92 -160q37 -70 -20 -110l-7 -4q-55 -37 -108 16l-129 137 l-125 -137q-33 -31 -59.5 -33t-51.5 17l-6 4q-59 33 -18 110l90 160l-160 74q-41 20 -50 41.5z" />
<glyph unicode="+" horiz-adv-x="1097" d="M57 524v15q0 100 119 100h258v264q0 119 105 119h22q102 0 103 -119v-264h258q119 0 118 -100v-15q0 -102 -118 -102h-258v-279q0 -119 -103 -118h-22q-104 0 -105 118v279h-258q-119 0 -119 102z" />
<glyph unicode="," horiz-adv-x="489" d="M23 -160l92 326q16 70 43.5 97.5t93.5 27.5h31q115 0 114 -125v-12q0 -78 -65 -154l-162 -225q-37 -43 -99 -19.5t-48 84.5z" />
<glyph unicode="-" horiz-adv-x="876" d="M74 479v43q0 47 30.5 79t88.5 32h491q57 0 88 -32t31 -79v-43q0 -49 -31 -79.5t-88 -30.5h-491q-57 0 -88 30.5t-31 79.5z" />
<glyph unicode="." horiz-adv-x="489" d="M88 121v29q0 135 135 135h37q139 0 139 -135v-29q0 -135 -139 -135h-37q-135 0 -135 135z" />
<glyph unicode="/" horiz-adv-x="735" d="M-6 -313q0 31 16 86l494 1562q0 10 61 11q147 0 148 -115q0 -27 -17 -86l-491 -1563q-4 -10 -62 -10q-149 0 -149 115z" />
<glyph unicode="0" horiz-adv-x="1316" d="M78 596v131q0 289 155.5 457t426 168t425 -167t154.5 -456v-131q0 -289 -155.5 -457t-426 -168t-425 167t-154.5 456zM383 580q0 -174 71.5 -267.5t205 -93.5t205 92t71.5 267v170q0 174 -72.5 268t-206 94t-204 -92t-70.5 -268v-170z" />
<glyph unicode="1" horiz-adv-x="800" d="M37 1087q0 45 18.5 81t37 50.5t24.5 12.5q57 -45 125 -45q66 0 115 42t59 111h88q133 0 133 -139v-1075q0 -139 -133 -139h-37q-129 0 -129 139v829q-51 -37 -117 -36q-80 0 -132 46.5t-52 122.5z" />
<glyph unicode="2" horiz-adv-x="1134" d="M70 154v63q0 90 34.5 165t100 132t126 94t146.5 78q16 8 52 24.5t52.5 24.5t46 22.5t44 25t36 24.5t32 26.5t21.5 29t15 33.5t4 36q0 84 -58 131t-165 47q-119 0 -189.5 -66.5t-97.5 -166.5q-2 0 -20.5 -3.5t-48 5t-58 20.5t-49 43t-20.5 74q0 133 135 235.5t366 102.5 q238 0 368 -109.5t130 -302.5q0 -88 -28.5 -154.5t-89 -114.5t-115 -78t-144.5 -67q-84 -37 -130 -59.5t-99 -56t-82 -73.5t-39 -91h602q143 0 144 -113v-14q0 -121 -144 -121h-696q-104 0 -143 32t-39 122z" />
<glyph unicode="3" horiz-adv-x="1155" d="M29 274q0 43 18.5 74t44 46.5t52 22.5t45 6t18.5 -5q33 -102 119 -156.5t211 -54.5q121 0 190.5 50t69.5 138q0 182 -236 183h-69q-141 0 -142 102v16q0 102 137 103h99q90 0 139 41t49 112q0 78 -64.5 123t-177.5 45q-221 0 -296 -190q0 -4 -18.5 -4t-44.5 7t-51.5 21.5 t-43 45t-17.5 71.5q0 111 133.5 196t342.5 85q252 0 387 -94.5t135 -268.5q0 -207 -232 -276q258 -84 258 -336q0 -190 -144 -297t-404 -107q-229 0 -368.5 93t-139.5 208z" />
<glyph unicode="4" horiz-adv-x="1249" d="M49 453v51q2 66 64 158l405 565q45 70 92 91t158 21q117 0 167 -44t50 -152v-590h102q70 0 100 -25.5t30 -83.5v-10q0 -59 -30 -84.5t-100 -25.5h-102v-199q0 -139 -127 -139h-27q-59 0 -90.5 36.5t-31.5 102.5v199h-490q-78 0 -124 36t-46 93zM315 547h406v573z" />
<glyph unicode="5" horiz-adv-x="1128" d="M43 231q0 41 29.5 78t59.5 54.5t34 11.5q133 -178 366 -178q127 0 201 58t74 157q0 102 -68.5 157.5t-195.5 55.5q-166 0 -275 -82q-178 6 -178 176v438q0 168 146 168h643q141 0 141 -119v-10q0 -117 -141 -117h-535v-293q121 45 242 45q223 0 356 -112.5t133 -306.5 q0 -203 -144.5 -321t-393.5 -118q-221 0 -357.5 80t-136.5 178z" />
<glyph unicode="6" horiz-adv-x="1234" d="M78 596v119q0 297 159.5 467t436.5 170q209 0 329.5 -75t120.5 -181q0 -51 -36.5 -85t-71.5 -44.5t-39 -3.5q-96 150 -283 149q-319 0 -319 -389v-10q141 131 358 131q205 0 325 -104.5t120 -293.5v-10q0 -205 -146.5 -334t-378.5 -129q-270 0 -422.5 169t-152.5 454z M381 520q8 -154 76.5 -236.5t189.5 -82.5q106 0 174 59t68 156v10q0 100 -62.5 153.5t-177.5 53.5q-145 0 -268 -113z" />
<glyph unicode="7" horiz-adv-x="1114" d="M35 1190v18q0 117 133 117h711q117 0 156.5 -40t39.5 -111v-19q0 -18 -5 -38.5t-10 -36t-17.5 -42t-18.5 -37t-22.5 -39t-18.5 -32.5l-459 -838q-59 -106 -155 -106q-45 0 -88 23.5t-64.5 49t-15.5 35.5l551 977h-584q-133 0 -133 119z" />
<glyph unicode="8" horiz-adv-x="1228" d="M61 358q0 240 265 322q-225 78 -226 297q0 170 142.5 274.5t373.5 104.5q233 0 369.5 -101.5t136.5 -273.5q0 -217 -221 -299q264 -80 264 -324q0 -172 -150.5 -277.5t-402.5 -105.5q-258 0 -404.5 102.5t-146.5 280.5zM356 387q0 -88 70 -141t188 -53q123 0 190.5 52 t67.5 142t-69.5 143.5t-188.5 53.5q-121 0 -189.5 -53.5t-68.5 -143.5zM383 952q0 -80 63.5 -130t167.5 -50q106 0 169 48t63 132q0 82 -62.5 133.5t-169.5 51.5q-111 0 -171 -50.5t-60 -134.5z" />
<glyph unicode="9" horiz-adv-x="1234" d="M57 870v9q0 205 146.5 339t378.5 134q266 0 419.5 -166t153.5 -457v-127q0 -307 -155.5 -469t-448.5 -162q-211 0 -329 69t-118 165q0 51 25 88t49.5 49t30.5 8q125 -139 321 -139q170 0 250 92t80 289l-2 12q-141 -131 -356 -131q-205 0 -325 104.5t-120 292.5zM346 891 q0 -100 62.5 -153.5t177.5 -53.5q147 0 266 115q-4 154 -73.5 239.5t-190.5 85.5q-104 0 -173 -64.5t-69 -162.5v-6z" />
<glyph unicode=":" d="M104 121v29q0 135 138 135h34q139 0 140 -135v-29q0 -135 -140 -135h-34q-138 0 -138 135zM104 745v29q0 137 138 137h34q139 0 140 -137v-29q0 -135 -140 -135h-34q-138 0 -138 135z" />
<glyph unicode=";" d="M41 -160l90 326q18 70 45 97.5t94 27.5h29q117 0 117 -125v-12q0 -78 -66 -154l-164 -225q-37 -43 -98 -19.5t-47 84.5zM104 745v29q0 137 138 137h34q139 0 140 -137v-29q0 -135 -140 -135h-34q-138 0 -138 135z" />
<glyph unicode="&#x3c;" horiz-adv-x="940" d="M78 530q0 98 86 144l622 338q6 2 23.5 -15.5t34 -50.5t16.5 -67q4 -96 -121 -158l-372 -189l372 -188q125 -61 121 -158q0 -35 -16.5 -68.5t-32.5 -51t-25 -13.5l-622 334q-86 49 -86 143z" />
<glyph unicode="=" horiz-adv-x="1097" d="M88 268v25q0 49 29.5 79.5t89.5 30.5h686q57 0 88 -31.5t31 -78.5v-25q0 -49 -30 -80.5t-89 -31.5h-686q-59 0 -89 31.5t-30 80.5zM88 764v24q0 49 29.5 80t89.5 31h686q57 0 88 -31.5t31 -79.5v-24q0 -49 -30 -81t-89 -32h-686q-59 0 -89 32t-30 81z" />
<glyph unicode="&#x3e;" horiz-adv-x="937" d="M78 186q0 98 123 158l370 188l-370 189q-125 61 -121 158q0 35 16.5 67.5t32.5 50t25 15.5l622 -338q84 -43 84 -144q0 -96 -84 -143l-622 -334q-8 -4 -25.5 13.5t-34 51t-16.5 68.5z" />
<glyph unicode="?" horiz-adv-x="1021" d="M47 1022q0 123 125 226.5t342 103.5q215 0 339 -100.5t124 -266.5q0 -94 -39 -160.5t-95.5 -104.5t-112.5 -72t-99 -81t-47 -112q-14 -55 -117 -56q-57 0 -91 26t-32 75q2 94 40 161.5t90 101.5t103.5 60.5t87 60.5t35.5 81q0 70 -50 109.5t-140 39.5 q-119 0 -185.5 -68.5t-80.5 -166.5q-2 -6 -50.5 -1t-97.5 40.5t-49 103.5zM313 121v29q0 135 136 135h36q139 0 140 -135v-29q0 -135 -140 -135h-36q-136 0 -136 135z" />
<glyph unicode="@" horiz-adv-x="1515" d="M80 662q0 303 192.5 496.5t495.5 193.5q313 0 493.5 -170t180.5 -439q0 -195 -87 -299t-249 -104q-174 0 -225 125q-57 -127 -199 -127q-123 0 -197.5 88t-74.5 221q0 139 76.5 225t195.5 86q117 0 186 -98q25 92 117 92q18 0 35.5 -5t27 -10t9.5 -9v-312 q0 -76 25.5 -109.5t80.5 -33.5q70 0 111 68.5t41 199.5q0 215 -142.5 353.5t-404.5 138.5q-248 0 -405.5 -161t-157.5 -410q0 -248 159.5 -409t411.5 -161q209 0 350 117q35 29 68 29q23 0 42 -18.5t27.5 -38t4.5 -23.5q-188 -184 -492 -185q-313 0 -504.5 191t-191.5 498z M602 647q0 -68 37 -108.5t96 -40.5q51 0 87 29.5t40 78.5v115q-43 78 -125 78q-61 0 -98 -41t-37 -111z" />
<glyph unicode="A" horiz-adv-x="1343" d="M20 78l453 1169q14 45 57 67.5t140 22.5q98 0 139 -22.5t55 -67.5l463 -1167q1 -3 1 -6q0 -11 -17 -29q-23 -23 -65 -41t-83 -18q-121 0 -174 143l-80 209h-485l-80 -213q-49 -139 -166 -139q-39 0 -79 17t-62 39q-18 17 -18 29q0 4 1 7zM483 563h365l-182 481z" />
<glyph unicode="B" horiz-adv-x="1304" d="M119 168v989q0 80 42 124t115 44h455q223 0 342 -87t119 -251q0 -217 -238 -282q143 -33 215 -119t72 -209q0 -193 -128 -285t-406 -92h-431q-74 0 -115.5 44t-41.5 124zM418 225h258q135 0 195.5 43t60.5 138q0 170 -254 169h-260v-350zM418 768h241q104 0 163 45 t59 125q0 162 -222 162h-241v-332z" />
<glyph unicode="C" horiz-adv-x="1339" d="M76 662q0 303 190.5 496.5t493.5 193.5q238 0 374 -100.5t136 -198.5q0 -59 -43 -98.5t-85 -51.5t-46 -4q-49 84 -136.5 132t-187.5 48q-168 0 -276.5 -115.5t-108.5 -300t109.5 -301t277.5 -116.5q115 0 203 53t127 147q4 8 48 -4t88 -51t44 -98q0 -104 -141.5 -212 t-386.5 -108q-301 0 -490.5 192t-189.5 497z" />
<glyph unicode="D" horiz-adv-x="1398" d="M119 166v991q0 78 44 123t116 45h335q334 0 523.5 -175t189.5 -482q0 -309 -194.5 -488.5t-528.5 -179.5h-317q-70 0 -119 48t-49 118zM418 258h184q199 0 311.5 107.5t112.5 300.5q0 190 -111.5 295.5t-308.5 105.5h-188v-809z" />
<glyph unicode="E" horiz-adv-x="1228" d="M119 166v991q0 80 42 124t115 44h740q139 0 139 -127v-10q0 -127 -139 -127h-594v-262h434q139 0 139 -117v-8q0 -123 -139 -123h-434v-289h604q139 0 139 -119v-12q0 -131 -139 -131h-750q-74 0 -115.5 43t-41.5 123z" />
<glyph unicode="F" horiz-adv-x="1138" d="M119 160v997q0 80 42 124t115 44h685q139 0 139 -121v-12q0 -125 -139 -125h-543v-330h391q139 0 139 -116v-7q0 -123 -139 -122h-383v-361q0 -139 -133 -139h-47q-127 0 -127 168z" />
<glyph unicode="G" horiz-adv-x="1472" d="M76 662q0 303 194.5 496.5t505.5 193.5q231 0 371.5 -89t140.5 -200q0 -53 -38 -90t-74.5 -48.5t-42.5 -4.5q-55 82 -147.5 128t-194.5 46q-178 0 -293 -123t-115 -320q0 -199 106.5 -320.5t282.5 -121.5q139 0 231.5 68.5t106.5 183.5v35h-236q-76 0 -110.5 24.5 t-34.5 83.5v12q0 61 35 85t110 24h375q129 0 125 -143v-562q0 -4 -13 -11t-38 -12t-49 -5q-143 0 -158 170q-125 -184 -411 -185q-285 0 -457 192t-172 493z" />
<glyph unicode="H" horiz-adv-x="1417" d="M119 129v1067q0 137 127 137h45q131 0 131 -137v-403h573v403q0 137 127 137h43q133 0 133 -137v-1067q0 -137 -133 -137h-43q-127 0 -127 137v408h-573v-408q0 -137 -131 -137h-45q-127 0 -127 137z" />
<glyph unicode="I" horiz-adv-x="573" d="M135 129v1067q0 137 129 137h41q133 0 133 -137v-1067q0 -137 -133 -137h-41q-129 0 -129 137z" />
<glyph unicode="J" horiz-adv-x="1017" d="M39 209q0 51 27.5 91t56.5 55.5t31 9.5q88 -135 239 -136q111 0 159 58.5t48 199.5v709q0 137 127 137h43q131 0 131 -137v-713q0 -260 -116.5 -385t-354.5 -125q-178 0 -284.5 68t-106.5 168z" />
<glyph unicode="K" horiz-adv-x="1257" d="M119 129v1067q0 137 127 137h43q133 0 133 -137v-473l434 512q74 98 166 98q51 0 94 -27.5t60.5 -55t13.5 -38.5l-449 -536l465 -565q1 -2 2 -6q0 -11 -15 -32q-19 -28 -65.5 -54.5t-99.5 -26.5q-96 0 -166 94l-440 528v-485q0 -137 -133 -137h-43q-127 0 -127 137z" />
<glyph unicode="L" horiz-adv-x="1103" d="M119 166v1030q0 137 127 137h43q133 0 133 -137v-930h496q139 0 139 -127v-8q0 -131 -139 -131h-642q-74 0 -115.5 43t-41.5 123z" />
<glyph unicode="M" horiz-adv-x="1554" d="M119 129v1053q0 74 39 112.5t110 38.5h84q68 0 99.5 -22.5t58.5 -83.5l268 -629l271 629q29 61 60.5 83.5t92.5 22.5h80q154 0 154 -151v-1053q0 -137 -119 -137h-47q-119 0 -119 137v789l-221 -537q-16 -37 -24.5 -50.5t-41.5 -28.5t-88 -15q-57 0 -89 15t-39 27.5 t-23 51.5l-222 526v-778q0 -70 -27.5 -103.5t-90.5 -33.5h-47q-119 0 -119 137z" />
<glyph unicode="N" horiz-adv-x="1417" d="M119 129v1055q0 72 34.5 110.5t96.5 38.5h37q55 0 84.5 -18.5t68.5 -67.5l574 -788v737q0 137 129 137h28q127 0 127 -137v-1055q0 -72 -33.5 -110.5t-95.5 -38.5h-24q-57 0 -84 15.5t-62 58.5l-596 819v-756q0 -137 -131 -137h-28q-125 0 -125 137z" />
<glyph unicode="O" horiz-adv-x="1509" d="M72 661.5q0 303.5 192.5 497t491.5 193.5q301 0 491.5 -192.5t190.5 -496t-191.5 -497t-492.5 -193.5t-491.5 192.5t-190.5 496zM373 664q0 -188 106.5 -305t276.5 -117t276.5 116.5t106.5 303.5q0 188 -107.5 305.5t-277.5 117.5t-275.5 -115.5t-105.5 -305.5z" />
<glyph unicode="P" horiz-adv-x="1206" d="M119 129v1028q0 80 42 124t115 44h347q264 0 404 -114.5t140 -333.5q0 -446 -544 -447h-201v-301q0 -137 -131 -137h-45q-127 0 -127 137zM418 657h200q123 0 188.5 56.5t65.5 160.5q0 215 -256 216h-198v-433z" />
<glyph unicode="Q" horiz-adv-x="1509" d="M72 661.5q0 303.5 193.5 497t492.5 193.5q301 0 490.5 -191.5t189.5 -496.5q0 -233 -135 -414l159 -170q1 -1 2 -4q0 -8 -15 -28q-19 -26 -62.5 -50.5t-92.5 -24.5q-94 0 -184 99q-164 -98 -354 -99q-301 0 -492.5 192.5t-191.5 496zM373 662q0 -184 108.5 -303 t276.5 -119q92 0 172 34l-129 136q-39 43 -45 95q-1 7 -1 14q0 44 33 77l13 12q34 27 70 27q54 0 112 -62l119 -127q45 96 45 216q0 186 -107.5 305.5t-279.5 119.5q-174 0 -280.5 -118.5t-106.5 -306.5z" />
<glyph unicode="R" horiz-adv-x="1263" d="M119 158v999q0 80 42 124t115 44h392q258 0 390 -105.5t132 -308.5q0 -160 -89 -263t-255 -130l344 -416q3 -3 3 -7q0 -10 -12 -27q-17 -27 -61.5 -51.5t-103.5 -24.5q-63 0 -106.5 27.5t-92.5 95.5l-282 356h-115v-342q0 -137 -131 -137h-43q-127 0 -127 166zM416 692 h231q119 0 179.5 52.5t60.5 146.5q0 199 -246 199h-225v-398z" />
<glyph unicode="S" horiz-adv-x="1165" d="M53 240q0 39 26.5 77.5t54.5 58t34 15.5q63 -78 170.5 -130t224.5 -52t179.5 42t62.5 120q0 31 -14.5 56.5t-32 39.5t-58.5 28.5t-65.5 20.5t-81.5 19q-25 6 -37 8q-92 20 -158.5 44.5t-134 69.5t-102.5 117t-35 168q0 186 140.5 298t377.5 112q223 0 349 -74t126 -168 q0 -43 -29.5 -83t-58 -59.5t-33.5 -15.5q-61 72 -155 118t-197 46q-109 0 -169 -42t-60 -116q0 -18 4 -33.5t13 -28.5t18.5 -22.5t29 -17.5t32.5 -14t40 -12.5t43 -10.5t50 -11t52 -11q207 -45 328 -138.5t121 -265.5q0 -199 -141.5 -309.5t-401.5 -110.5q-246 0 -379 82.5 t-133 184.5z" />
<glyph unicode="T" horiz-adv-x="1239" d="M31 1192v8q0 125 139 125h899q139 0 139 -125v-8q0 -131 -139 -131h-297v-932q0 -137 -133 -137h-43q-125 0 -125 137v932h-301q-139 0 -139 131z" />
<glyph unicode="U" horiz-adv-x="1357" d="M109 557v639q0 137 131 137h39q131 0 131 -137v-635q0 -322 270 -321q268 0 268 323v633q0 137 131 137h41q129 0 129 -137v-635q0 -287 -145.5 -435.5t-426 -148.5t-424.5 146.5t-144 433.5z" />
<glyph unicode="V" horiz-adv-x="1320" d="M23 1233l-2 6q0 13 21 32q26 24 73 43t92 19q125 0 170 -139l291 -856l288 856q43 139 164 139q45 0 90 -19.5t69 -42.5q19 -19 19 -32q0 -3 -2 -6l-454 -1131q-27 -61 -68 -87.5t-112.5 -26.5t-110.5 25.5t-66 88.5z" />
<glyph unicode="W" horiz-adv-x="1947" d="M82 1237q-2 8 16.5 29.5t64.5 43t103 21.5q137 0 168 -166l168 -790l201 690q31 121 180 121q141 0 174 -121l199 -688l170 792q31 164 166 164q53 0 96 -21.5t61.5 -44t16.5 -30.5l-305 -1133q-14 -63 -59.5 -89.5t-127.5 -26.5q-80 0 -123 26.5t-63 89.5l-209 717 l-217 -717q-31 -117 -184 -116q-82 0 -125 25.5t-60 90.5z" />
<glyph unicode="X" horiz-adv-x="1302" d="M39 102l407 560l-399 552q-6 10 18.5 39t73.5 54.5t99 25.5q100 0 161 -106l254 -396l267 398q61 106 157 106q47 0 94.5 -25.5t70.5 -53.5q19 -22 19 -32q0 -3 -1 -5l-406 -557l406 -556q1 -2 1 -4q0 -11 -20 -33q-25 -28 -73 -53.5t-97 -25.5q-104 0 -164 104l-262 400 l-266 -402q-63 -106 -160 -106q-47 0 -93 25.5t-70 53.5q-19 22 -18 32q0 3 1 5z" />
<glyph unicode="Y" horiz-adv-x="1234" d="M4 1217q-2 3 -2 6q0 11 12 30q16 27 65.5 53.5t117.5 26.5q86 0 143 -104l278 -457l283 455q61 106 146 106q61 0 108 -26.5t65 -54.5q13 -20 12 -30q0 -3 -1 -5l-461 -685v-403q0 -137 -133 -137h-41q-129 0 -129 137v403z" />
<glyph unicode="Z" horiz-adv-x="1257" d="M82 127v20q0 59 20.5 96.5t77.5 106.5l606 721h-561q-133 0 -133 119v14q0 121 133 121h774q86 0 128 -36t42 -91v-18q0 -59 -21.5 -99.5t-74.5 -99.5l-616 -727h600q135 0 135 -119v-14q0 -121 -135 -121h-805q-84 0 -127 37t-43 90z" />
<glyph unicode="[" horiz-adv-x="763" d="M121 -240v1411q0 80 42 124t116 44h311q74 0 106.5 -25.5t32.5 -84.5v-12q0 -61 -32.5 -88t-106.5 -27h-201v-1274h205q74 0 106.5 -25.5t32.5 -83.5v-12q0 -59 -32.5 -86t-106.5 -27h-315q-74 0 -116 43t-42 123z" />
<glyph unicode="\" horiz-adv-x="735" d="M20 1231q0 115 148 115q61 0 61 -11l494 -1562q16 -55 16 -86q0 -115 -147 -115q-61 0 -62 10l-493 1563q-17 59 -17 86z" />
<glyph unicode="]" horiz-adv-x="763" d="M31 -281q0 57 32.5 83t106.5 26h205v1274h-201q-74 0 -106.5 26.5t-32.5 88.5v12q0 59 32.5 84.5t106.5 25.5h311q74 0 116 -44t42 -124v-1411q0 -80 -42 -123t-116 -43h-315q-74 0 -106.5 27t-32.5 86v12z" />
<glyph unicode="^" horiz-adv-x="1024" d="M201 993q0 84 117.5 188.5t193.5 123.5q74 -18 191.5 -123t117.5 -189q0 -39 -25.5 -64.5t-66.5 -25.5q-100 0 -219 207q-115 -207 -215 -207q-41 0 -67.5 25.5t-26.5 64.5z" />
<glyph unicode="_" horiz-adv-x="1015" d="M23 -104q0 47 30.5 75.5t87.5 28.5h733q57 0 88 -28.5t31 -75.5v-13q0 -104 -119 -104h-733q-57 0 -87.5 27.5t-30.5 76.5v13z" />
<glyph unicode="`" horiz-adv-x="1024" d="M201 1372q0 47 37.5 80t93.5 33q49 0 102 -35q61 -39 121.5 -108.5t91.5 -125t23 -69.5t-64.5 -15.5t-143.5 19t-161 66.5q-100 61 -100 155z" />
<glyph unicode="a" horiz-adv-x="1118" d="M57 266q0 172 157 254t486 86h33q0 199 -205 199q-174 0 -247 -154q0 -6 -46.5 -2t-93.5 35t-47 90q0 102 119 175t334 73q471 0 471 -412v-592q0 -10 -34 -21t-75 -11q-145 0 -170 157q-115 -166 -346 -166q-156 0 -246 80t-90 209zM334 287q0 -55 42 -88t113 -33 q106 0 175 63.5t69 161.5v58l-53 -3q-174 -4 -260 -41.5t-86 -117.5z" />
<glyph unicode="b" horiz-adv-x="1239" d="M109 129v1262q0 6 14 13t40.5 13t53.5 6q180 0 180 -231v-338q109 168 324 168q205 0 334 -142.5t129 -379.5q0 -233 -130 -380t-337 -147q-111 0 -195 48.5t-125 125.5v-18q0 -137 -127 -137h-30q-131 0 -131 137zM397 432q2 -100 74 -164.5t176 -64.5q117 0 187.5 81 t70.5 214q0 131 -70.5 212t-185.5 81q-182 0 -252 -164v-195z" />
<glyph unicode="c" horiz-adv-x="1052" d="M55 500q0 227 148.5 373.5t378.5 146.5q205 0 315.5 -89t110.5 -181q0 -53 -39 -86t-78 -41.5t-43 0.5q-68 166 -254 165q-119 0 -195.5 -81.5t-76.5 -206.5q0 -129 76.5 -212t195.5 -83q186 0 254 166q2 8 42 1t79 -41t39 -89q0 -88 -113 -178.5t-313 -90.5 q-231 0 -379 148t-148 379z" />
<glyph unicode="d" horiz-adv-x="1239" d="M55 498q0 238 129 381t338 143q104 0 188.5 -42t131.5 -110v521q0 6 14 13t41 13t53 6q180 0 180 -231v-1063q0 -137 -126 -137h-31q-131 0 -131 137v33q-106 -188 -324 -189q-205 0 -334 146t-129 379zM334 498q0 -131 71.5 -213t184.5 -82q104 0 178 66.5t74 170.5v191 q-70 160 -248 160q-119 0 -189.5 -80t-70.5 -213z" />
<glyph unicode="e" horiz-adv-x="1126" d="M55 492q0 229 147.5 379.5t375.5 150.5q221 0 359 -139.5t138 -360.5v-20q-2 -41 -16.5 -60.5t-52.5 -19.5h-691q14 -111 93 -174.5t198 -63.5q197 0 283 148q2 4 35.5 -4.5t68.5 -41t35 -83.5q0 -88 -117.5 -159t-314.5 -71q-246 0 -393.5 141.5t-147.5 377.5zM315 590 h492q-4 104 -66.5 167.5t-167.5 63.5q-100 0 -171 -64.5t-87 -166.5z" />
<glyph unicode="f" horiz-adv-x="780" d="M12 881v16q0 102 121 102h82v54q0 383 346 383q125 0 189.5 -45t64.5 -113q0 -31 -14.5 -61.5t-29.5 -45t-17 -10.5q-57 53 -138 53q-63 0 -92.5 -37.5t-29.5 -123.5v-54h129q121 0 120 -106v-19q0 -100 -120 -100h-119v-645q0 -76 -33 -106.5t-96 -30.5h-31 q-129 0 -129 137v645h-82q-121 1 -121 107z" />
<glyph unicode="g" horiz-adv-x="1048" d="M-10 -154q0 102 85 170t226 88q-35 31 -35 93q0 68 68 116q-129 37 -202 124t-73 206q0 162 129 269.5t328 107.5q113 0 215 -43l43 82q55 100 144 100q45 0 81.5 -29.5t50 -59.5t9.5 -34l-174 -166q90 -96 90 -223q0 -160 -125 -259t-332 -99h-14q-4 -8 -4 -21 q0 -16 9 -27.5t35.5 -20.5t50 -15t76.5 -19l87 -20q289 -80 289 -283q0 -145 -142.5 -230t-396.5 -85q-268 0 -393 67.5t-125 210.5zM264 -137q0 -113 248 -113q125 0 191.5 32t66.5 91q0 16 -7 30.5t-22.5 26t-31 18.5t-43 15t-47 12.5t-55.5 12.5l-54 12 q-111 -8 -178.5 -44t-67.5 -93zM326 647q0 -84 53 -136t137 -52t137.5 52t53.5 136t-53.5 135.5t-139.5 51.5q-84 0 -136 -51.5t-52 -135.5z" />
<glyph unicode="h" horiz-adv-x="1189" d="M109 129v1262q0 6 14 13t40.5 13t53.5 6q180 0 180 -231v-352q111 182 324 182q186 0 278.5 -118t92.5 -304v-471q0 -137 -127 -137h-31q-131 0 -131 137v430q0 104 -49 162.5t-133 58.5q-102 0 -163 -62.5t-61 -170.5v-418q0 -137 -127 -137h-30q-131 0 -131 137z" />
<glyph unicode="i" d="M100 1313q0 68 43 106.5t119 38.5t119 -38t43 -107.5t-43 -108.5t-119 -39t-119 39t-43 109zM117 129v741q0 139 129 140h30q129 0 130 -140v-741q0 -137 -127 -137h-31q-131 0 -131 137z" />
<glyph unicode="j" d="M-164 -248q0 31 14.5 61.5t29 45t16.5 12.5q47 -51 116 -51q104 0 105 127v923q0 139 129 140h30q129 0 130 -140v-938q0 -164 -85 -253t-245 -89q-113 0 -176.5 43t-63.5 119zM100 1313q0 68 43 106.5t119 38.5t119 -38t43 -107.5t-43 -108.5t-119 -39t-119 39t-43 109z " />
<glyph unicode="k" horiz-adv-x="1052" d="M109 129v1262q0 6 14 13t40.5 13t53.5 6q180 0 180 -231v-627l281 355q63 92 160 92q41 0 80.5 -21.5t58 -45t14.5 -32.5l-315 -391l356 -436q4 -8 -15.5 -31.5t-60.5 -45t-82 -21.5q-96 0 -163 92l-314 379v-330q0 -137 -127 -137h-30q-131 0 -131 137z" />
<glyph unicode="l" d="M117 129v1262q0 6 14 13t41 13t53 6q180 0 181 -231v-1063q0 -137 -127 -137h-31q-131 0 -131 137z" />
<glyph unicode="m" horiz-adv-x="1816" d="M109 129v848q0 4 14 12t40.5 14.5t53.5 6.5q147 0 174 -160q117 172 309 172q244 0 320 -205q121 205 338 205q184 0 272 -106.5t88 -290.5v-496q0 -137 -127 -137h-30q-131 0 -131 137v449q0 203 -175 202q-61 0 -114.5 -33.5t-83.5 -89.5v-528q0 -137 -127 -137h-29 q-133 0 -133 137v442q0 209 -172 209q-61 0 -114.5 -33.5t-84.5 -89.5v-528q0 -137 -127 -137h-30q-131 0 -131 137z" />
<glyph unicode="n" horiz-adv-x="1189" d="M109 129v848q0 4 14 12t40.5 14.5t53.5 6.5q147 0 174 -164q119 176 330 176q186 0 278.5 -114.5t92.5 -299.5v-479q0 -137 -127 -137h-31q-131 0 -131 137v436q0 100 -48 157.5t-137 57.5q-152 0 -221 -131v-520q0 -137 -127 -137h-30q-131 0 -131 137z" />
<glyph unicode="o" horiz-adv-x="1179" d="M55 500q0 231 149.5 376.5t387.5 145.5q236 0 384 -146.5t148 -380t-148.5 -378t-387.5 -144.5q-238 0 -385.5 145.5t-147.5 381.5zM309 500q0 -131 80 -215t201 -84t199.5 84t78.5 211q0 131 -78.5 216t-199.5 85t-201 -84t-80 -213z" />
<glyph unicode="p" horiz-adv-x="1239" d="M109 -260v1237q0 4 14 12t40.5 14.5t53.5 6.5q154 0 176 -174q102 186 328 186q205 0 334 -142.5t129 -379.5q0 -233 -130 -380t-337 -147q-111 0 -195 51.5t-125 131.5v-416q0 -139 -127 -139h-30q-131 0 -131 139zM397 432q2 -100 74 -164.5t176 -64.5q117 0 187.5 81 t70.5 214q0 131 -70.5 212t-185.5 81q-182 0 -252 -164v-195z" />
<glyph unicode="q" horiz-adv-x="1239" d="M55 498q0 238 129 381t338 143q109 0 196 -46t130 -118q31 152 174 152q27 0 53.5 -6.5t40.5 -14.5t14 -12v-1237q0 -139 -131 -139h-30q-127 0 -127 139v422q-106 -188 -324 -189q-205 0 -334 146t-129 379zM334 498q0 -131 71.5 -213t184.5 -82q104 0 178 68.5 t74 170.5v187q-72 162 -248 162q-119 0 -189.5 -80t-70.5 -213z" />
<glyph unicode="r" horiz-adv-x="849" d="M109 129v848q0 4 14 12t40.5 14.5t53.5 6.5q154 0 176 -170q66 182 244 182q86 0 136 -45t50 -123q0 -51 -22.5 -89t-44 -52.5t-25.5 -10.5q-53 49 -131 50q-203 0 -203 -324v-299q0 -137 -127 -137h-30q-131 0 -131 137z" />
<glyph unicode="s" horiz-adv-x="976" d="M41 195q0 33 20.5 63.5t42 44.5t25.5 10q125 -133 330 -133q176 0 176 96q0 49 -43 70t-150 43q-14 2 -22 4q-51 12 -76 18.5t-75 23t-78.5 37t-60.5 51t-47 74.5t-15 99q0 145 113.5 234.5t303.5 89.5q195 0 300.5 -61.5t105.5 -151.5q0 -35 -22.5 -65.5t-45 -46 t-26.5 -11.5q-115 133 -293 133q-170 0 -170 -98q0 -45 39 -63.5t137 -41.5q25 -6 37 -8q61 -14 94 -22.5t94.5 -33t94 -53t59 -79.5t26.5 -117q0 -152 -117.5 -238t-322.5 -86q-209 0 -321.5 63t-112.5 155z" />
<glyph unicode="t" horiz-adv-x="823" d="M29 874v19q0 106 121 106h49v127q0 139 131 140h24q129 0 129 -140v-127h174q117 0 117 -102v-16q0 -106 -119 -107h-178v-426q0 -147 111 -147q76 0 129 67q2 4 19.5 -7t33.5 -39.5t16 -65.5q0 -78 -72.5 -130.5t-191.5 -52.5q-324 0 -323 342v459h-49q-121 0 -121 100z " />
<glyph unicode="u" horiz-adv-x="1189" d="M100 387v483q0 139 127 140h31q131 0 131 -140v-440q0 -100 49 -157.5t140 -57.5q145 0 215 131v524q0 139 129 140h28q131 0 131 -140v-845q0 -6 -14 -13.5t-41 -13.5t-53 -6q-145 0 -174 158q-119 -176 -328 -177q-186 0 -278.5 115t-92.5 299z" />
<glyph unicode="v" horiz-adv-x="1089" d="M23 926q-4 8 16 28.5t60 39t79 18.5q117 0 164 -148l203 -600l209 600q47 147 157 148q41 0 80 -18.5t59.5 -39t16.5 -28.5l-358 -863q-31 -76 -162 -75.5t-162 73.5z" />
<glyph unicode="w" horiz-adv-x="1546" d="M31 926q-2 10 24.5 30.5t70.5 38t81 17.5q115 0 139 -127l123 -596l160 518q27 94 155 94q127 0 152 -94l151 -508l123 586q23 127 133 127q39 0 82 -18.5t68 -39t20 -28.5l-253 -854q-23 -84 -154 -84q-78 0 -113 19.5t-55 78.5l-162 504l-164 -504q-18 -57 -54 -77.5 t-112 -20.5q-131 0 -155 84z" />
<glyph unicode="x" horiz-adv-x="1062" d="M39 84l303 414l-301 417q-4 8 15.5 31t60.5 44.5t84 21.5q106 0 161 -105l170 -266l170 266q57 104 158 105q45 0 87 -21.5t63 -44.5q16 -17 15 -26q0 -3 -1 -5l-305 -417l301 -414q6 -8 -14.5 -30.5t-62.5 -44t-89 -21.5q-100 0 -156 104l-170 266l-168 -266 q-57 -104 -159 -104q-43 0 -85 21.5t-63 44.5q-16 18 -16 26q1 3 2 4z" />
<glyph unicode="y" horiz-adv-x="1087" d="M23 926q-4 8 17 28.5t60 39t80 18.5q117 0 162 -146l217 -571l193 569q45 147 159 148q37 0 77 -17.5t61.5 -37t17.5 -27.5l-455 -1182q-55 -141 -163 -141q-39 0 -78 17.5t-59.5 35.5t-16.5 27l166 376q-70 8 -94 66z" />
<glyph unicode="z" horiz-adv-x="1011" d="M61 102v17q0 45 12.5 69.5t51.5 67.5l446 520h-387q-117 0 -116 105v14q0 104 116 104h643q55 0 83 -28.5t28 -71.5v-14q0 -43 -13.5 -67.5t-50.5 -65.5l-458 -529h424q117 0 116 -104v-13q0 -106 -116 -106h-670q-55 0 -82 29.5t-27 72.5z" />
<glyph unicode="{" horiz-adv-x="946" d="M43 467q0 84 30.5 124t121.5 87l88 47q27 307 169 462.5t318 155.5q66 0 107 -34.5t41 -91.5q0 -37 -18.5 -65t-31.5 -30q-170 -23 -240.5 -145.5t-80.5 -374.5l-244 -135l242 -135q10 -252 81.5 -374t241.5 -146q4 0 15.5 -11.5t23 -35t11.5 -48.5q0 -57 -42 -91 t-106 -34q-176 0 -319.5 156t-169.5 463l-86 45q-94 49 -123 88t-29 123z" />
<glyph unicode="|" horiz-adv-x="555" d="M133 -266v1470q0 139 129 139h31q129 0 129 -139v-1470q0 -139 -127 -140h-31q-131 1 -131 140z" />
<glyph unicode="}" horiz-adv-x="946" d="M29 -283q0 25 11 48.5t22.5 35t15.5 11.5q170 25 240.5 146.5t80.5 373.5l242 135l-242 135q-10 252 -80.5 375t-242.5 145q-6 2 -16.5 12.5t-20.5 34t-10 48.5q0 57 41 91.5t104 34.5q176 0 319.5 -155.5t170.5 -462.5l86 -47q90 -47 121.5 -87t31.5 -124t-29.5 -123 t-123.5 -88l-86 -45q-27 -307 -169.5 -463t-318.5 -156q-66 0 -106.5 34t-40.5 91z" />
<glyph unicode="~" horiz-adv-x="1021" d="M170 426q0 90 53 150.5t129 60.5q135 0 287 -141q43 133 117 133q43 0 69.5 -28t26.5 -71q0 -90 -53.5 -149t-128.5 -59q-137 0 -287 139q-43 -133 -117 -133q-43 0 -69.5 27.5t-26.5 70.5z" />
<glyph unicode="&#xa1;" horiz-adv-x="567" d="M113 164l82 657q20 94 75 94h29q29 0 44 -21.5t28 -72.5l82 -657q18 -84 -22 -133t-120 -49h-51q-82 0 -123.5 49t-23.5 133zM127 1178v28q0 135 139 135h37q135 0 135 -135v-28q0 -137 -135 -138h-37q-139 1 -139 138z" />
<glyph unicode="&#xa2;" horiz-adv-x="1083" d="M53 578q0 203 114 343t304 179v119q0 139 117 139h10q61 0 89 -33t28 -106v-111q156 -18 240.5 -88t84.5 -154q0 -49 -36.5 -83.5t-73.5 -45t-43 -4.5q-45 80 -107.5 116t-165.5 36q-127 0 -205.5 -83t-78.5 -222q0 -141 83 -224.5t216 -83.5q186 0 266 162q6 6 43 -3 t75 -42t38 -82q0 -90 -88.5 -163.5t-243.5 -94.5v-117q0 -139 -119 -139h-8q-63 0 -91 33t-28 106v123q-197 37 -308.5 174.5t-111.5 348.5z" />
<glyph unicode="&#xa3;" horiz-adv-x="1226" d="M33 113v14q0 109 131 109h49l51 274h-84q-47 0 -74.5 25.5t-27.5 68.5v25q0 45 27.5 70.5t74.5 25.5h123l41 223q72 403 449 404q178 0 281.5 -80t103.5 -195q0 -68 -42 -103.5t-84 -39.5t-42 2q-37 182 -207 182q-90 0 -137.5 -48t-67.5 -157l-35 -188h271 q47 0 74.5 -25.5t27.5 -70.5v-25q0 -43 -27.5 -68.5t-74.5 -25.5h-310l-49 -274h557q70 0 100.5 -26t30.5 -83v-14q0 -59 -30.5 -86t-100.5 -27h-868q-68 0 -99.5 27t-31.5 86z" />
<glyph unicode="&#xa4;" horiz-adv-x="1292" d="M47 504v20q0 80 103 80h71v119h-71q-102 0 -103 82v20q0 80 103 80h90q47 209 194.5 328t362.5 119q197 0 317.5 -80t120.5 -187q0 -47 -34 -84.5t-67.5 -51t-39.5 -7.5q-59 84 -126 124t-171 40q-201 0 -269 -201h326q102 0 102 -80v-20q0 -82 -102 -82h-350v-119h350 q102 0 102 -80v-20q0 -80 -102 -80h-326q33 -96 105 -150.5t172 -54.5q104 0 170.5 43t120.5 131q6 8 40.5 -6t69.5 -52t35 -85q0 -100 -116.5 -188.5t-321.5 -88.5q-223 0 -371.5 119t-193.5 332h-88q-103 0 -103 80z" />
<glyph unicode="&#xa5;" horiz-adv-x="1257" d="M86 1210q-6 10 7 39t57.5 57.5t109.5 28.5q96 0 146 -104l223 -428l235 428q55 106 148 106q55 0 96 -29.5t55.5 -58t7.5 -39.5l-319 -493h197q55 0 82.5 -23.5t27.5 -62.5v-23q0 -86 -110 -86h-285v-108h285q111 0 110 -86v-23q0 -39 -27.5 -62.5t-82.5 -23.5h-285v-94 q0 -72 -27.5 -105.5t-93.5 -33.5h-31q-117 0 -116 139v94h-289q-53 0 -81 24.5t-28 61.5v23q0 86 109 86h289v108h-289q-109 0 -109 86v23q0 37 28 61.5t81 24.5h201z" />
<glyph unicode="&#xa7;" horiz-adv-x="1165" d="M59 459q0 195 215 274q-164 80 -163 254q0 164 132 264.5t349 100.5q225 0 333.5 -74t108.5 -162q0 -37 -24.5 -71.5t-50 -49t-29.5 -10.5q-135 156 -324 156q-94 0 -151.5 -33t-57.5 -92.5t67.5 -91t221.5 -68.5q74 -18 121 -31.5t109.5 -42t99.5 -60.5t63.5 -84 t26.5 -118q0 -193 -211 -272q166 -82 166 -258q0 -164 -137.5 -263.5t-370.5 -99.5q-236 0 -359.5 75t-123.5 179q0 35 23.5 68t47 47t27.5 10q59 -74 165.5 -119t221.5 -45q219 0 219 123q0 33 -15.5 55.5t-61.5 41t-76.5 26.5t-114.5 27q-76 18 -124 30.5t-116.5 41 t-107.5 62.5t-69 88t-30 122zM311 502q0 -27 9.5 -49.5t35 -39t46 -27.5t66.5 -24.5t69.5 -18.5t83.5 -17q27 -6 38 -9l23 -4q78 14 125 59.5t47 100.5q0 53 -49 91t-97.5 51.5t-160.5 37.5l-27 6q-4 0 -10 1.5t-8 1.5q-86 -14 -138.5 -60.5t-52.5 -99.5z" />
<glyph unicode="&#xa8;" horiz-adv-x="1024" d="M156 1261.5q0 69.5 40 108.5t105 39q72 0 112 -39t40 -108.5t-39 -108.5t-107 -39q-70 0 -110.5 39t-40.5 108.5zM571 1261.5q0 69.5 39 108.5t107 39q70 0 110.5 -39t40.5 -108.5t-40 -108.5t-105 -39q-72 0 -112 39t-40 108.5z" />
<glyph unicode="&#xa9;" horiz-adv-x="1527" d="M82 662q0 299 192.5 494.5t491.5 195.5q301 0 491.5 -192.5t190.5 -493.5t-192.5 -497t-491.5 -196q-301 0 -491.5 194t-190.5 495zM213 664q0 -246 155.5 -408t397.5 -162q246 0 398.5 159t152.5 409q0 248 -155.5 408.5t-397.5 160.5q-246 0 -398.5 -158.5 t-152.5 -408.5zM408 659q0 162 106.5 267.5t267.5 105.5q158 0 238 -84q39 -39 37 -84q0 -31 -23.5 -56.5t-47 -34.5t-28.5 -5q-61 88 -170 88q-76 0 -130 -55.5t-54 -138.5q0 -86 54.5 -141.5t134.5 -55.5q113 0 172 94q2 6 26.5 -4t48 -35.5t23.5 -58.5q2 -45 -43 -90 q-80 -84 -236 -84q-166 0 -271 104t-105 268z" />
<glyph unicode="&#xaa;" horiz-adv-x="909" d="M49 743q0 88 43 142.5t163 88.5t329 40q-4 158 -162 157q-121 0 -191 -122q-6 0 -39.5 -1t-72.5 25.5t-39 73.5q0 84 92 144.5t266 60.5q381 0 381 -340v-463q0 -10 -27.5 -18.5t-62.5 -8.5q-113 0 -135 125q-39 -61 -108.5 -96t-153.5 -35q-129 0 -206 62.5t-77 164.5z M276 766q0 -43 37 -67.5t99 -24.5q74 0 124 45t50 108v66q-176 -8 -243 -39t-67 -88zM303 106v25q0 123 123 123h33q125 0 125 -123v-25q0 -123 -125 -122h-33q-123 -1 -123 122z" />
<glyph unicode="&#xab;" horiz-adv-x="1091" d="M68 501.5q0 18.5 60 98.5t149.5 158t150.5 78h4q45 0 69.5 -26t24.5 -69v-4q0 -86 -247 -235q248 -154 247 -236v-4q0 -41 -24.5 -67.5t-69.5 -26.5h-4q-61 0 -150.5 78t-149.5 157.5t-60 98zM518 501.5q0 20.5 64.5 109.5t162 175t164.5 86h4q49 0 77 -28.5t28 -73.5v-6 q0 -92 -279 -262q279 -172 279 -260v-9q0 -45 -27.5 -73.5t-77.5 -28.5h-4q-68 0 -165 86t-161.5 175t-64.5 109.5z" />
<glyph unicode="&#xad;" horiz-adv-x="876" d="M74 479v43q0 47 30.5 79t88.5 32h491q57 0 88 -32t31 -79v-43q0 -49 -31 -79.5t-88 -30.5h-491q-57 0 -88 30.5t-31 79.5z" />
<glyph unicode="&#xae;" horiz-adv-x="1527" d="M82 662q0 299 192.5 494.5t491.5 195.5q301 0 491.5 -192.5t190.5 -493.5t-192.5 -497t-491.5 -196q-301 0 -491.5 194t-190.5 495zM213 664q0 -246 155.5 -408t397.5 -162q246 0 398.5 159t152.5 409q0 248 -155.5 408.5t-397.5 160.5q-246 0 -398.5 -158.5 t-152.5 -408.5zM473 410v508q0 106 100 106h220q299 0 299 -231q0 -170 -168 -211l163 -215q4 -6 -10 -22.5t-42.5 -32t-57.5 -15.5q-70 0 -113 72l-125 178h-73v-158q0 -88 -84 -88h-27q-82 0 -82 109zM662 688h120q117 0 117 92q0 94 -121 94h-116v-186z" />
<glyph unicode="&#xaf;" horiz-adv-x="1024" d="M156 1241v12q0 49 33.5 76t93.5 27h458q127 0 127 -103v-12q0 -104 -127 -104h-458q-127 0 -127 104z" />
<glyph unicode="&#xb0;" horiz-adv-x="794" d="M68 1014v16q0 143 93 232.5t240 89.5q143 0 235.5 -88t92.5 -232v-16q0 -143 -94 -232.5t-239.5 -89.5t-236.5 88.5t-91 231.5zM250 1010q0 -72 43 -116t106.5 -44t104.5 43t41 117v26q0 72 -42 117t-106 45q-66 0 -106.5 -43t-40.5 -119v-26z" />
<glyph unicode="&#xb1;" horiz-adv-x="1228" d="M123 236v16q0 102 119 102h743q119 0 119 -102v-16q0 -102 -119 -103h-743q-119 1 -119 103zM143 870v17q0 45 30 72.5t89 27.5h236v223q0 119 104 119h23q102 0 102 -119v-223h238q59 0 88.5 -27.5t29.5 -72.5v-17q0 -100 -118 -100h-238v-209q0 -119 -102 -119h-23 q-104 0 -104 119v209h-236q-119 0 -119 100z" />
<glyph unicode="&#xb2;" horiz-adv-x="688" d="M57 686v41q0 53 15.5 92t51.5 69t67.5 48t91.5 45q10 4 28.5 12t28.5 12.5t25.5 11.5t23.5 12t18.5 11.5t15.5 12.5t11 13t8 15.5t2 16.5q0 39 -27.5 63.5t-76.5 24.5q-59 0 -96 -38t-47 -91q-6 2 -37 0t-66 22.5t-35 69.5q0 80 79 136t214 56t211 -63.5t76 -171.5 q0 -51 -15.5 -89t-49 -64.5t-62.5 -41t-80 -34.5q-18 -8 -54 -21.5t-54.5 -22t-43 -21.5t-38 -28.5t-19.5 -35.5q106 2 324 2q96 0 96 -78v-6q0 -82 -96 -82h-365q-74 0 -99.5 21.5t-25.5 80.5z" />
<glyph unicode="&#xb3;" horiz-adv-x="688" d="M31 739q0 47 31.5 73t59.5 25t34 -1q33 -113 163 -113q59 0 96.5 24.5t37.5 65.5q0 80 -109 80h-29q-94 0 -94 68v12q0 68 92 67h45q37 0 61.5 18.5t24.5 49.5q0 35 -34.5 57.5t-92.5 22.5q-119 0 -149 -107q-6 0 -31.5 -1t-56.5 24.5t-31 73.5q0 70 75 116.5t200 46.5 q303 0 303 -206q0 -115 -127 -152q141 -47 141 -186q0 -109 -81 -168.5t-234 -59.5q-133 0 -214 50t-81 120z" />
<glyph unicode="&#xb4;" horiz-adv-x="1024" d="M352 1147q-8 14 23 69.5t91 125t122 108.5q53 35 102 35q55 0 93 -33t38 -80q0 -94 -100 -155q-74 -45 -161 -66t-143.5 -19.5t-64.5 15.5z" />
<glyph unicode="&#xb6;" horiz-adv-x="1275" d="M43 948q0 387 477 387h228q51 0 79.5 -28.5t28.5 -75.5v-1157q0 -88 -80 -88h-26q-82 0 -82 88v497h-142q-236 0 -359.5 95.5t-123.5 281.5zM969 74v1177q0 88 78 88h28q82 0 82 -88v-1177q0 -88 -82 -88h-28q-78 0 -78 88z" />
<glyph unicode="&#xb7;" horiz-adv-x="501" d="M94 487v29q0 137 137 137h35q139 0 140 -137v-29q0 -135 -140 -135h-35q-137 0 -137 135z" />
<glyph unicode="&#xb8;" horiz-adv-x="1024" d="M299 -408l90 222q18 51 46 71.5t93 20.5h31q121 0 121 -86v-10q0 -45 -78 -111l-158 -156q-29 -16 -65.5 -17t-63 18t-16.5 48z" />
<glyph unicode="&#xb9;" horiz-adv-x="688" d="M66 1176q0 31 13 55t27.5 34.5t18.5 8.5q37 -27 76 -27t68.5 23.5t37.5 64.5h68q92 0 92 -98v-481h78q96 0 96 -88v-2q0 -82 -96 -82h-377q-94 0 -94 82v2q0 88 94 88h108v338q-39 -29 -88 -29q-51 0 -86.5 31t-35.5 80z" />
<glyph unicode="&#xba;" horiz-adv-x="976" d="M63 930q0 178 122 300t306.5 122t304 -120t119.5 -300q0 -178 -121.5 -300t-306.5 -122q-186 0 -305 120t-119 300zM279 932q0 -94 60 -159.5t150.5 -65.5t150.5 64.5t60 160.5t-60 161.5t-150.5 65.5t-150.5 -65.5t-60 -161.5zM346 106v25q0 123 123 123h33 q125 0 125 -123v-25q0 -123 -125 -122h-33q-123 -1 -123 122z" />
<glyph unicode="&#xbb;" horiz-adv-x="1091" d="M74 236v6q0 88 278 262q-279 168 -278 260v8q0 45 27.5 72.5t78.5 27.5h2q68 0 165 -86t161.5 -174t64.5 -110q0 -20 -64.5 -109.5t-161.5 -175.5t-165 -86h-2q-51 0 -78.5 29t-27.5 76zM565 262v6q0 76 248 236q-248 150 -248 235v4q0 41 24.5 68t69.5 27h5 q61 0 150 -78t149.5 -159t60.5 -99.5t-60.5 -98t-149.5 -157.5t-150 -78h-5q-45 0 -69.5 26.5t-24.5 67.5z" />
<glyph unicode="&#xbc;" horiz-adv-x="1622" d="M66 1176q0 31 13 55t27.5 34.5t18.5 8.5q37 -27 76 -27t68.5 23.5t37.5 64.5h68q92 0 92 -98v-481h78q96 0 96 -88v-2q0 -82 -96 -82h-377q-94 0 -94 82v2q0 88 94 88h108v338q-39 -29 -88 -29q-51 0 -86.5 31t-35.5 80zM285 10q0 45 47 105q8 10 76.5 92t169 201.5 t172.5 209.5l542 685q6 2 26.5 1t42 -21.5t21.5 -53.5q0 -43 -47 -105q-240 -285 -417 -506l-541 -681q-8 -4 -29.5 -2t-42 23t-20.5 52zM948 254v31q2 31 37 100l191 295q25 45 57.5 58.5t112.5 13.5q78 0 110.5 -30t32.5 -106v-294h35q47 0 67.5 -16.5t20.5 -55.5v-6 q0 -39 -20.5 -56.5t-67.5 -17.5h-35v-82q0 -96 -88 -96h-10q-84 0 -84 96v82h-246q-51 0 -82 23.5t-31 60.5zM1118 317h199l-2 304z" />
<glyph unicode="&#xbd;" horiz-adv-x="1622" d="M66 1176q0 31 13 55t27.5 34.5t18.5 8.5q37 -27 76 -27t68.5 23.5t37.5 64.5h68q92 0 92 -98v-481h78q96 0 96 -88v-2q0 -82 -96 -82h-377q-94 0 -94 82v2q0 88 94 88h108v338q-39 -29 -88 -29q-51 0 -86.5 31t-35.5 80zM233 10q0 45 48 105q8 10 76.5 92t169 201.5 t171.5 209.5l543 685q6 2 26.5 1t42 -21.5t21.5 -53.5q0 -43 -47 -105q-240 -285 -418 -506l-540 -681q-8 -4 -30 -2t-42.5 23t-20.5 52zM991 102v41q0 53 15.5 92t51.5 69t67.5 48.5t91.5 44.5q10 4 28.5 12.5t28.5 12.5t25.5 11t23.5 12.5t18.5 11.5t15.5 12t11 13t8 15.5 t2 16.5q0 39 -27.5 63.5t-76.5 24.5q-59 0 -96 -38t-48 -91q-6 2 -36.5 0t-65.5 22.5t-35 69.5q0 80 79 136.5t214 56.5t211 -63.5t76 -172.5q0 -51 -15.5 -89t-49 -64.5t-62.5 -41t-80 -34.5q-18 -8 -54 -21.5t-54.5 -21.5t-43 -21.5t-38 -29t-19.5 -35.5q106 2 324 2 q96 0 96 -78v-6q0 -82 -96 -82h-365q-74 0 -99.5 21.5t-25.5 80.5z" />
<glyph unicode="&#xbe;" horiz-adv-x="1622" d="M31 739q0 47 31.5 73t59.5 25t34 -1q33 -113 163 -113q59 0 96.5 24.5t37.5 65.5q0 80 -109 80h-29q-94 0 -94 68v12q0 68 92 67h45q37 0 61.5 18.5t24.5 49.5q0 35 -34.5 57.5t-92.5 22.5q-119 0 -149 -107q-6 0 -31.5 -1t-56.5 24.5t-31 73.5q0 70 75 116.5t200 46.5 q303 0 303 -206q0 -115 -127 -152q141 -47 141 -186q0 -109 -81 -168.5t-234 -59.5q-133 0 -214 50t-81 120zM276 10q0 45 48 105q8 10 76.5 92t169 201.5t171.5 209.5l543 685q6 2 26.5 1t42 -21.5t21.5 -53.5q0 -43 -47 -105q-240 -285 -418 -506l-540 -681q-8 -4 -30 -2 t-42.5 23t-20.5 52zM948 254v31q2 31 37 100l191 295q25 45 57.5 58.5t112.5 13.5q78 0 110.5 -30t32.5 -106v-294h35q47 0 67.5 -16.5t20.5 -55.5v-6q0 -39 -20.5 -56.5t-67.5 -17.5h-35v-82q0 -96 -88 -96h-10q-84 0 -84 96v82h-246q-51 0 -82 23.5t-31 60.5zM1118 317 h199l-2 304z" />
<glyph unicode="&#xbf;" horiz-adv-x="1021" d="M43 342q0 78 27.5 139.5t70.5 95t93.5 67.5t93.5 59.5t74.5 68.5t35.5 98q12 55 117 56q123 0 123 -101q-2 -94 -40 -160.5t-90 -100.5t-103.5 -60.5t-87 -60t-35.5 -81.5q0 -70 50 -110.5t140 -40.5q119 0 185.5 68.5t80.5 166.5q2 0 20.5 3.5t48.5 -5t58.5 -20.5 t49 -44t20.5 -75q0 -125 -125 -227.5t-344 -102.5q-215 0 -339 99.5t-124 267.5zM397 1178v28q0 135 140 135h34q137 0 138 -135v-28q0 -137 -138 -138h-34q-140 1 -140 138z" />
<glyph unicode="&#xc0;" horiz-adv-x="1343" d="M20 78l453 1169q14 45 57 67.5t140 22.5q98 0 139 -22.5t55 -67.5l463 -1167q6 -12 -16.5 -34.5t-64.5 -41t-83 -18.5q-121 0 -174 143l-80 209h-485l-80 -213q-49 -139 -166 -139q-39 0 -79 17t-62.5 39t-16.5 36zM326 1702q0 47 37.5 80t93.5 33q49 0 102 -35 q61 -39 121.5 -108.5t91.5 -125t22.5 -70t-64.5 -15.5t-143 19.5t-161 65.5q-100 62 -100 156zM483 563h365l-182 481z" />
<glyph unicode="&#xc1;" horiz-adv-x="1343" d="M20 78l453 1169q14 45 57 67.5t140 22.5q98 0 139 -22.5t55 -67.5l463 -1167q6 -12 -16.5 -34.5t-64.5 -41t-83 -18.5q-121 0 -174 143l-80 209h-485l-80 -213q-49 -139 -166 -139q-39 0 -79 17t-62.5 39t-16.5 36zM483 563h365l-182 481zM532.5 1476.5 q-8.5 14.5 22.5 70t91.5 125t121.5 108.5q53 35 102 35q55 0 93 -33t38 -80q0 -94 -100 -156q-74 -45 -161 -65.5t-143 -19.5t-64.5 15.5z" />
<glyph unicode="&#xc2;" horiz-adv-x="1343" d="M20 78l453 1169q14 45 57 67.5t140 22.5q98 0 139 -22.5t55 -67.5l463 -1167q6 -12 -16.5 -34.5t-64.5 -41t-83 -18.5q-121 0 -174 143l-80 209h-485l-80 -213q-49 -139 -166 -139q-39 0 -79 17t-62.5 39t-16.5 36zM358 1534q0 84 118 188.5t194 122.5 q74 -18 191.5 -122.5t117.5 -188.5q0 -39 -25.5 -64.5t-66.5 -25.5q-100 0 -219 207q-115 -207 -215 -207q-41 0 -68 25.5t-27 64.5zM483 563h365l-182 481z" />
<glyph unicode="&#xc3;" horiz-adv-x="1343" d="M20 78l453 1169q14 45 57 67.5t140 22.5q98 0 139 -22.5t55 -67.5l463 -1167q6 -12 -16.5 -34.5t-64.5 -41t-83 -18.5q-121 0 -174 143l-80 209h-485l-80 -213q-49 -139 -166 -139q-39 0 -79 17t-62.5 39t-16.5 36zM336 1548q0 90 53 150.5t129 60.5q135 0 287 -141 q43 133 117 133q43 0 69.5 -27.5t26.5 -70.5q0 -90 -53.5 -149.5t-128.5 -59.5q-137 0 -287 139q-43 -133 -117 -133q-43 0 -69.5 27.5t-26.5 70.5zM483 563h365l-182 481z" />
<glyph unicode="&#xc4;" horiz-adv-x="1343" d="M20 78l453 1169q14 45 57 67.5t140 22.5q98 0 139 -22.5t55 -67.5l463 -1167q6 -12 -16.5 -34.5t-64.5 -41t-83 -18.5q-121 0 -174 143l-80 209h-485l-80 -213q-49 -139 -166 -139q-39 0 -79 17t-62.5 39t-16.5 36zM313 1591.5q0 69.5 40 108.5t106 39q72 0 111.5 -39 t39.5 -108.5t-39 -108.5t-106 -39q-70 0 -111 39t-41 108.5zM483 563h365l-182 481zM729 1591.5q0 69.5 39 108.5t106 39q70 0 111 -39t41 -108.5t-40 -108.5t-105 -39q-72 0 -112 39t-40 108.5z" />
<glyph unicode="&#xc5;" horiz-adv-x="1343" d="M20 78l453 1169q6 23 39 35q-98 66 -98 197q0 109 73.5 180.5t184.5 71.5q113 0 184.5 -72t71.5 -180q0 -131 -105 -197q33 -16 41 -35l463 -1167q6 -12 -16.5 -34.5t-64.5 -41t-83 -18.5q-121 0 -174 143l-80 209h-485l-80 -213q-49 -139 -166 -139q-39 0 -79 17 t-62.5 39t-16.5 36zM483 563h365l-182 484zM559 1479q0 -49 32 -83t79 -34t79.5 34t32.5 83q0 51 -32.5 85.5t-79.5 34.5t-79 -34.5t-32 -85.5z" />
<glyph unicode="&#xc6;" horiz-adv-x="1792" d="M20 78l443 1143q33 104 194 104h922q139 0 139 -127v-10q0 -127 -139 -127h-651l100 -262h391q139 0 140 -117v-8q0 -123 -140 -123h-289l113 -289h346q139 0 140 -119v-12q0 -131 -140 -131h-393q-90 0 -136 28.5t-79 112.5l-74 197h-483l-80 -213q-51 -139 -166 -139 q-41 0 -81 17t-61.5 39t-15.5 36zM483 563h363l-180 481z" />
<glyph unicode="&#xc7;" horiz-adv-x="1339" d="M76 662q0 303 190.5 496.5t493.5 193.5q238 0 374 -100.5t136 -198.5q0 -59 -43 -98.5t-85 -51.5t-46 -4q-49 84 -136.5 132t-187.5 48q-168 0 -276.5 -115.5t-108.5 -300t109.5 -301t277.5 -116.5q115 0 203 53t127 147q4 8 48 -4t88 -51t44 -98q0 -104 -141.5 -212 t-386.5 -108q-301 0 -490.5 192t-189.5 497zM508 -408l90 222q18 51 46 71.5t93 20.5h31q121 0 121 -86v-10q0 -45 -78 -111l-158 -156q-29 -16 -65.5 -17t-63 18t-16.5 48z" />
<glyph unicode="&#xc8;" horiz-adv-x="1228" d="M119 166v991q0 80 42 124t115 44h740q139 0 139 -127v-10q0 -127 -139 -127h-594v-262h434q139 0 139 -117v-8q0 -123 -139 -123h-434v-289h604q139 0 139 -119v-12q0 -131 -139 -131h-750q-74 0 -115.5 43t-41.5 123zM350 1702q0 47 38 80t93 33q49 0 103 -35 q61 -39 121.5 -108.5t91 -125t22.5 -70t-64.5 -15.5t-143.5 19.5t-160 65.5q-101 62 -101 156z" />
<glyph unicode="&#xc9;" horiz-adv-x="1228" d="M119 166v991q0 80 42 124t115 44h740q139 0 139 -127v-10q0 -127 -139 -127h-594v-262h434q139 0 139 -117v-8q0 -123 -139 -123h-434v-289h604q139 0 139 -119v-12q0 -131 -139 -131h-750q-74 0 -115.5 43t-41.5 123zM459 1476.5q-8 14.5 22.5 70t91 125t121.5 108.5 q53 35 103 35q55 0 93 -33t38 -80q0 -94 -101 -156q-74 -45 -160.5 -65.5t-143 -19.5t-64.5 15.5z" />
<glyph unicode="&#xca;" horiz-adv-x="1228" d="M119 166v991q0 80 42 124t115 44h740q139 0 139 -127v-10q0 -127 -139 -127h-594v-262h434q139 0 139 -117v-8q0 -123 -139 -123h-434v-289h604q139 0 139 -119v-12q0 -131 -139 -131h-750q-74 0 -115.5 43t-41.5 123zM332 1534q0 84 117.5 188.5t193.5 122.5 q74 -18 191.5 -122.5t117.5 -188.5q0 -39 -25.5 -64.5t-66.5 -25.5q-100 0 -219 207q-115 -207 -215 -207q-41 0 -67.5 25.5t-26.5 64.5z" />
<glyph unicode="&#xcb;" horiz-adv-x="1228" d="M119 166v991q0 80 42 124t115 44h740q139 0 139 -127v-10q0 -127 -139 -127h-594v-262h434q139 0 139 -117v-8q0 -123 -139 -123h-434v-289h604q139 0 139 -119v-12q0 -131 -139 -131h-750q-74 0 -115.5 43t-41.5 123zM287 1591.5q0 69.5 40 108.5t105 39q72 0 112 -39 t40 -108.5t-39 -108.5t-107 -39q-70 0 -110.5 39t-40.5 108.5zM702 1591.5q0 69.5 39 108.5t107 39q70 0 110.5 -39t40.5 -108.5t-39.5 -108.5t-105.5 -39q-72 0 -112 39t-40 108.5z" />
<glyph unicode="&#xcc;" horiz-adv-x="573" d="M-31 1702q0 47 38 80t93 33q49 0 103 -35q61 -39 121.5 -108.5t91 -125t22.5 -70t-64.5 -15.5t-143.5 19.5t-160 65.5q-101 62 -101 156zM135 129v1067q0 137 129 137h41q133 0 133 -137v-1067q0 -137 -133 -137h-41q-129 0 -129 137z" />
<glyph unicode="&#xcd;" horiz-adv-x="573" d="M129 1476.5q-8 14.5 22.5 70t91 125t122.5 108.5q53 35 102 35q55 0 93 -33t38 -80q0 -94 -100 -156q-74 -45 -161 -65.5t-143.5 -19.5t-64.5 15.5zM135 129v1067q0 137 129 137h41q133 0 133 -137v-1067q0 -137 -133 -137h-41q-129 0 -129 137z" />
<glyph unicode="&#xce;" horiz-adv-x="573" d="M-27 1534q0 84 118 188.5t194 122.5q74 -18 191.5 -122.5t117.5 -188.5q0 -39 -25.5 -64.5t-66.5 -25.5q-100 0 -219 207q-115 -207 -215 -207q-41 0 -68 25.5t-27 64.5zM135 129v1067q0 137 129 137h41q133 0 133 -137v-1067q0 -137 -133 -137h-41q-129 0 -129 137z" />
<glyph unicode="&#xcf;" horiz-adv-x="573" d="M-72 1591.5q0 69.5 40 108.5t106 39q72 0 111.5 -39t39.5 -108.5t-39 -108.5t-106 -39q-70 0 -111 39t-41 108.5zM135 129v1067q0 137 129 137h41q133 0 133 -137v-1067q0 -137 -133 -137h-41q-129 0 -129 137zM344 1591.5q0 69.5 39 108.5t106 39q70 0 111 -39 t41 -108.5t-40 -108.5t-105 -39q-72 0 -112 39t-40 108.5z" />
<glyph unicode="&#xd0;" horiz-adv-x="1486" d="M16 653v25q0 41 26 67.5t79 26.5h74v385q0 78 45 123t114 45h342q332 0 524.5 -176t192.5 -481q0 -307 -196.5 -487.5t-530.5 -180.5h-324q-70 0 -118.5 48t-48.5 118v391h-74q-53 0 -79 26.5t-26 69.5zM496 260h194q201 0 312.5 106.5t111.5 299.5q0 188 -111.5 293.5 t-308.5 105.5h-198v-293h256q102 0 102 -94v-25q0 -96 -102 -96h-256v-297z" />
<glyph unicode="&#xd1;" horiz-adv-x="1417" d="M119 129v1055q0 72 34.5 110.5t96.5 38.5h37q55 0 84.5 -18.5t68.5 -67.5l574 -788v737q0 137 129 137h28q127 0 127 -137v-1055q0 -72 -33.5 -110.5t-95.5 -38.5h-24q-57 0 -84 15.5t-62 58.5l-596 819v-756q0 -137 -131 -137h-28q-125 0 -125 137zM367 1548 q0 90 53 150.5t129 60.5q135 0 287 -141q43 133 116 133q43 0 70 -27.5t27 -70.5q0 -90 -53.5 -149.5t-129.5 -59.5q-137 0 -286 139q-43 -133 -117 -133q-43 0 -69.5 27.5t-26.5 70.5z" />
<glyph unicode="&#xd2;" horiz-adv-x="1509" d="M72 661.5q0 303.5 192.5 497t491.5 193.5q301 0 491.5 -192.5t190.5 -496t-191.5 -497t-492.5 -193.5t-491.5 192.5t-190.5 496zM373 664q0 -188 106.5 -305t276.5 -117t276.5 116.5t106.5 303.5q0 188 -107.5 305.5t-277.5 117.5t-275.5 -115.5t-105.5 -305.5zM422 1702 q0 47 38 80t93 33q49 0 102 -35q61 -39 122 -108.5t91.5 -125t22.5 -70t-64.5 -15.5t-143.5 19.5t-161 65.5q-100 62 -100 156z" />
<glyph unicode="&#xd3;" horiz-adv-x="1509" d="M72 661.5q0 303.5 192.5 497t491.5 193.5q301 0 491.5 -192.5t190.5 -496t-191.5 -497t-492.5 -193.5t-491.5 192.5t-190.5 496zM373 664q0 -188 106.5 -305t276.5 -117t276.5 116.5t106.5 303.5q0 188 -107.5 305.5t-277.5 117.5t-275.5 -115.5t-105.5 -305.5z M600 1476.5q-8 14.5 22.5 70t91 125t122.5 108.5q53 35 102 35q55 0 93 -33t38 -80q0 -94 -100 -156q-74 -45 -161 -65.5t-143.5 -19.5t-64.5 15.5z" />
<glyph unicode="&#xd4;" horiz-adv-x="1509" d="M72 661.5q0 303.5 192.5 497t491.5 193.5q301 0 491.5 -192.5t190.5 -496t-191.5 -497t-492.5 -193.5t-491.5 192.5t-190.5 496zM373 664q0 -188 106.5 -305t276.5 -117t276.5 116.5t106.5 303.5q0 188 -107.5 305.5t-277.5 117.5t-275.5 -115.5t-105.5 -305.5zM444 1534 q0 84 118 188.5t194 122.5q74 -18 191.5 -122.5t117.5 -188.5q0 -39 -25.5 -64.5t-66.5 -25.5q-100 0 -219 207q-115 -207 -215 -207q-41 0 -68 25.5t-27 64.5z" />
<glyph unicode="&#xd5;" horiz-adv-x="1509" d="M72 661.5q0 303.5 192.5 497t491.5 193.5q301 0 491.5 -192.5t190.5 -496t-191.5 -497t-492.5 -193.5t-491.5 192.5t-190.5 496zM373 664q0 -188 106.5 -305t276.5 -117t276.5 116.5t106.5 303.5q0 188 -107.5 305.5t-277.5 117.5t-275.5 -115.5t-105.5 -305.5zM416 1548 q0 90 53 150.5t129 60.5q135 0 287 -141q43 133 116 133q43 0 70 -27.5t27 -70.5q0 -90 -53.5 -149.5t-129.5 -59.5q-137 0 -286 139q-43 -133 -117 -133q-43 0 -69.5 27.5t-26.5 70.5z" />
<glyph unicode="&#xd6;" horiz-adv-x="1509" d="M72 661.5q0 303.5 192.5 497t491.5 193.5q301 0 491.5 -192.5t190.5 -496t-191.5 -497t-492.5 -193.5t-491.5 192.5t-190.5 496zM373 664q0 -188 106.5 -305t276.5 -117t276.5 116.5t106.5 303.5q0 188 -107.5 305.5t-277.5 117.5t-275.5 -115.5t-105.5 -305.5z M399 1591.5q0 69.5 40 108.5t106 39q72 0 111.5 -39t39.5 -108.5t-39 -108.5t-106 -39q-70 0 -111 39t-41 108.5zM815 1591.5q0 69.5 39 108.5t107 39q70 0 110.5 -39t40.5 -108.5t-40 -108.5t-105 -39q-72 0 -112 39t-40 108.5z" />
<glyph unicode="&#xd7;" horiz-adv-x="1134" d="M174 911l19 17q72 78 157 -15l219 -231l219 231q88 94 160 15l17 -17q74 -78 -11 -157l-229 -228l229 -227q86 -82 11 -158l-19 -16q-72 -76 -158 12l-219 234l-219 -234q-84 -86 -157 -12l-17 16q-76 76 10 158l230 227l-230 228q-82 79 -12 157z" />
<glyph unicode="&#xd8;" horiz-adv-x="1509" d="M74 662q0 297 191.5 493.5t492.5 196.5q223 0 391 -113l147 164q6 6 36 -3t57.5 -37t27.5 -60q0 -45 -47 -99l-82 -92q152 -186 152 -448q0 -299 -191.5 -495t-492.5 -196q-229 0 -398 115l-159 -176q-6 -8 -35 2t-57.5 38t-28.5 60q0 43 47 99l96 106q-147 183 -147 445 zM354 664q0 -137 60 -240l553 614q-94 55 -211 56q-182 0 -292 -120t-110 -310zM541 289q96 -57 217 -58q180 0 291.5 121t111.5 310q0 137 -63 245z" />
<glyph unicode="&#xd9;" horiz-adv-x="1357" d="M109 557v639q0 137 131 137h39q131 0 131 -137v-635q0 -322 270 -321q268 0 268 323v633q0 137 131 137h41q129 0 129 -137v-635q0 -287 -145.5 -435.5t-426 -148.5t-424.5 146.5t-144 433.5zM354 1690q0 47 38 79.5t93 32.5q49 0 103 -35q61 -39 121.5 -108.5t91 -124.5 t22.5 -69.5t-64.5 -15.5t-143.5 19.5t-160 65.5q-101 62 -101 156z" />
<glyph unicode="&#xda;" horiz-adv-x="1357" d="M109 557v639q0 137 131 137h39q131 0 131 -137v-635q0 -322 270 -321q268 0 268 323v633q0 137 131 137h41q129 0 129 -137v-635q0 -287 -145.5 -435.5t-426 -148.5t-424.5 146.5t-144 433.5zM538.5 1464.5q-8.5 14.5 22.5 69.5t91.5 125t121.5 108q53 35 103 35 q55 0 93 -32.5t38 -79.5q0 -94 -101 -156q-74 -45 -161 -65.5t-143 -19.5t-64.5 15.5z" />
<glyph unicode="&#xdb;" horiz-adv-x="1357" d="M109 557v639q0 137 131 137h39q131 0 131 -137v-635q0 -322 270 -321q268 0 268 323v633q0 137 131 137h41q129 0 129 -137v-635q0 -287 -145.5 -435.5t-426 -148.5t-424.5 146.5t-144 433.5zM365 1534q0 84 117.5 188.5t193.5 122.5q74 -18 191.5 -122.5t117.5 -188.5 q0 -39 -25.5 -64.5t-66.5 -25.5q-100 0 -219 207q-115 -207 -215 -207q-41 0 -67.5 25.5t-26.5 64.5z" />
<glyph unicode="&#xdc;" horiz-adv-x="1357" d="M109 557v639q0 137 131 137h39q131 0 131 -137v-635q0 -322 270 -321q268 0 268 323v633q0 137 131 137h41q129 0 129 -137v-635q0 -287 -145.5 -435.5t-426 -148.5t-424.5 146.5t-144 433.5zM319 1591.5q0 69.5 40 108.5t106 39q72 0 111.5 -39t39.5 -108.5 t-38.5 -108.5t-106.5 -39q-70 0 -111 39t-41 108.5zM735 1591.5q0 69.5 39 108.5t107 39q70 0 110.5 -39t40.5 -108.5t-40 -108.5t-105 -39q-72 0 -112 39t-40 108.5z" />
<glyph unicode="&#xdd;" horiz-adv-x="1234" d="M4 1217q-6 10 10.5 36.5t65.5 53t117 26.5q86 0 143 -104l278 -457l283 455q61 106 146 106q61 0 108 -26.5t64.5 -54t11.5 -35.5l-461 -685v-403q0 -137 -133 -137h-41q-129 0 -129 137v403zM467 1464.5q-8 14.5 22.5 69.5t91 125t121.5 108q53 35 103 35q55 0 93 -32.5 t38 -79.5q0 -94 -100 -156q-74 -45 -161 -65.5t-143.5 -19.5t-64.5 15.5z" />
<glyph unicode="&#xde;" horiz-adv-x="1222" d="M119 129v1067q0 137 127 137h43q133 0 133 -137v-90h194q266 0 406.5 -112.5t140.5 -327.5q0 -436 -545 -437h-196v-100q0 -137 -133 -137h-43q-127 0 -127 137zM422 459h196q254 0 254 205q0 207 -251 206h-199v-411z" />
<glyph unicode="&#xdf;" horiz-adv-x="1198" d="M109 125v807q0 258 124.5 380t380.5 122q217 0 341 -94.5t124 -252.5q0 -244 -252 -288q166 -53 250 -164t84 -260q0 -174 -111.5 -288t-281.5 -114q-143 0 -220 49.5t-77 127.5q0 31 16.5 61.5t34 45.5t21.5 13q66 -70 170 -69q72 0 122 50t50 122q0 84 -52.5 143 t-179.5 94q-66 20 -96.5 53t-30.5 99q0 70 52 123q225 0 225 166q0 76 -52.5 119.5t-140.5 43.5q-213 0 -213 -260v-829q0 -139 -129 -139h-30q-59 0 -94 36.5t-35 102.5z" />
<glyph unicode="&#xe0;" horiz-adv-x="1118" d="M57 266q0 172 157 254t486 86h33q0 199 -205 199q-174 0 -247 -154q0 -6 -46.5 -2t-93.5 35t-47 90q0 102 119 175t334 73q471 0 471 -412v-592q0 -10 -34 -21t-75 -11q-145 0 -170 157q-115 -166 -346 -166q-156 0 -246 80t-90 209zM258 1372q0 47 38 80t93 33 q49 0 103 -35q61 -39 121.5 -108.5t91 -125t22.5 -69.5t-64.5 -15.5t-143.5 19t-161 66.5q-100 61 -100 155zM334 287q0 -55 42 -88t113 -33q106 0 175 63.5t69 161.5v58l-53 -3q-174 -4 -260 -41.5t-86 -117.5z" />
<glyph unicode="&#xe1;" horiz-adv-x="1118" d="M57 266q0 172 157 254t486 86h33q0 199 -205 199q-174 0 -247 -154q0 -6 -46.5 -2t-93.5 35t-47 90q0 102 119 175t334 73q471 0 471 -412v-592q0 -10 -34 -21t-75 -11q-145 0 -170 157q-115 -166 -346 -166q-156 0 -246 80t-90 209zM334 287q0 -55 42 -88t113 -33 q106 0 175 63.5t69 161.5v58l-53 -3q-174 -4 -260 -41.5t-86 -117.5zM391 1147q-8 14 22.5 69.5t91 125t122.5 108.5q53 35 102 35q55 0 93 -33t38 -80q0 -94 -100 -155q-74 -45 -161 -66t-143.5 -19.5t-64.5 15.5z" />
<glyph unicode="&#xe2;" horiz-adv-x="1118" d="M57 266q0 172 157 254t486 86h33q0 199 -205 199q-174 0 -247 -154q0 -6 -46.5 -2t-93.5 35t-47 90q0 102 119 175t334 73q471 0 471 -412v-592q0 -10 -34 -21t-75 -11q-145 0 -170 157q-115 -166 -346 -166q-156 0 -246 80t-90 209zM248 1204q0 84 117.5 188.5 t193.5 123.5q74 -18 191.5 -123t117.5 -189q0 -39 -25.5 -64.5t-66.5 -25.5q-100 0 -219 207q-115 -207 -215 -207q-41 0 -67.5 25.5t-26.5 64.5zM334 287q0 -55 42 -88t113 -33q106 0 175 63.5t69 161.5v58l-53 -3q-174 -4 -260 -41.5t-86 -117.5z" />
<glyph unicode="&#xe3;" horiz-adv-x="1118" d="M57 266q0 172 157 254t486 86h33q0 199 -205 199q-174 0 -247 -154q0 -6 -46.5 -2t-93.5 35t-47 90q0 102 119 175t334 73q471 0 471 -412v-592q0 -10 -34 -21t-75 -11q-145 0 -170 157q-115 -166 -346 -166q-156 0 -246 80t-90 209zM211 1219q0 90 53 150.5t129 60.5 q135 0 287 -142q43 133 117 133q43 0 69.5 -27.5t26.5 -70.5q0 -90 -53.5 -149.5t-128.5 -59.5q-137 0 -287 139q-43 -133 -117 -133q-43 0 -69.5 28t-26.5 71zM334 287q0 -55 42 -88t113 -33q106 0 175 63.5t69 161.5v58l-53 -3q-174 -4 -260 -41.5t-86 -117.5z" />
<glyph unicode="&#xe4;" horiz-adv-x="1118" d="M57 266q0 172 157 254t486 86h33q0 199 -205 199q-174 0 -247 -154q0 -6 -46.5 -2t-93.5 35t-47 90q0 102 119 175t334 73q471 0 471 -412v-592q0 -10 -34 -21t-75 -11q-145 0 -170 157q-115 -166 -346 -166q-156 0 -246 80t-90 209zM195 1261.5q0 69.5 39.5 108.5 t105.5 39q72 0 112 -39t40 -108.5t-39 -108.5t-107 -39q-70 0 -110.5 39t-40.5 108.5zM334 287q0 -55 42 -88t113 -33q106 0 175 63.5t69 161.5v58l-53 -3q-174 -4 -260 -41.5t-86 -117.5zM610 1261.5q0 69.5 39 108.5t107 39q70 0 110.5 -39t40.5 -108.5t-40 -108.5 t-105 -39q-72 0 -112 39t-40 108.5z" />
<glyph unicode="&#xe5;" horiz-adv-x="1118" d="M57 266q0 172 157 254t486 86h33q0 199 -205 199q-174 0 -247 -154q0 -6 -46.5 -2t-93.5 35t-47 90q0 102 119 175t334 73q471 0 471 -412v-592q0 -10 -34 -21t-75 -11q-145 0 -170 157q-115 -166 -346 -166q-156 0 -246 80t-90 209zM293 1364q0 106 73.5 178t184.5 72 q115 0 185.5 -70.5t70.5 -179.5t-72.5 -179.5t-185.5 -70.5q-115 0 -185.5 70.5t-70.5 179.5zM334 287q0 -55 42 -88t113 -33q106 0 175 63.5t69 161.5v58l-53 -3q-174 -4 -260 -41.5t-86 -117.5zM438 1364q0 -49 33 -84t78 -35q49 0 81 34t32 85t-33 86t-80 35t-79 -35 t-32 -86z" />
<glyph unicode="&#xe6;" horiz-adv-x="1779" d="M57 266q0 172 157 254t486 86h33q0 199 -205 199q-174 0 -247 -154q0 -6 -46.5 -2t-93.5 35t-47 90q0 100 114 174t316 74q250 0 355 -145q133 145 350 145q221 0 360.5 -139.5t139.5 -360.5v-20q-4 -80 -70 -80h-690q14 -111 93 -174.5t198 -63.5q197 0 280 148 q2 4 37 -4.5t69.5 -41t34.5 -83.5q0 -88 -118.5 -159t-313.5 -71q-319 0 -440 226q-53 -100 -163.5 -161t-250.5 -61q-154 0 -246 80t-92 209zM334 287q0 -55 42 -88t113 -33q106 0 175 63.5t69 161.5v58l-53 -3q-174 -4 -260 -41.5t-86 -117.5zM967 590h493 q-6 106 -68.5 168.5t-164.5 62.5q-100 0 -172 -64.5t-88 -166.5z" />
<glyph unicode="&#xe7;" horiz-adv-x="1052" d="M55 500q0 227 148.5 373.5t378.5 146.5q205 0 315.5 -89t110.5 -181q0 -53 -39 -86t-78 -41.5t-43 0.5q-68 166 -254 165q-119 0 -195.5 -81.5t-76.5 -206.5q0 -129 76.5 -212t195.5 -83q186 0 254 166q2 8 42 1t79 -41t39 -89q0 -88 -113 -178.5t-313 -90.5 q-231 0 -379 148t-148 379zM350 -408l90 222q18 51 46 71.5t94 20.5h30q121 0 121 -86v-10q0 -45 -78 -111l-157 -156q-29 -16 -66 -17t-63.5 18t-16.5 48z" />
<glyph unicode="&#xe8;" horiz-adv-x="1126" d="M55 492q0 229 147.5 379.5t375.5 150.5q221 0 359 -139.5t138 -360.5v-20q-2 -41 -16.5 -60.5t-52.5 -19.5h-691q14 -111 93 -174.5t198 -63.5q197 0 283 148q2 4 35.5 -4.5t68.5 -41t35 -83.5q0 -88 -117.5 -159t-314.5 -71q-246 0 -393.5 141.5t-147.5 377.5zM248 1372 q0 47 38 80t93 33q49 0 102 -35q61 -39 122 -108.5t91.5 -125t22.5 -69.5t-64.5 -15.5t-143.5 19t-161 66.5q-100 61 -100 155zM315 590h492q-4 104 -66.5 167.5t-167.5 63.5q-100 0 -171 -64.5t-87 -166.5z" />
<glyph unicode="&#xe9;" horiz-adv-x="1126" d="M55 492q0 229 147.5 379.5t375.5 150.5q221 0 359 -139.5t138 -360.5v-20q-2 -41 -16.5 -60.5t-52.5 -19.5h-691q14 -111 93 -174.5t198 -63.5q197 0 283 148q2 4 35.5 -4.5t68.5 -41t35 -83.5q0 -88 -117.5 -159t-314.5 -71q-246 0 -393.5 141.5t-147.5 377.5zM315 590 h492q-4 104 -66.5 167.5t-167.5 63.5q-100 0 -171 -64.5t-87 -166.5zM405.5 1147q-8.5 14 22.5 69.5t91.5 125t121.5 108.5q53 35 102 35q55 0 93 -33t38 -80q0 -94 -100 -155q-74 -45 -161 -66t-143 -19.5t-64.5 15.5z" />
<glyph unicode="&#xea;" horiz-adv-x="1126" d="M55 492q0 229 147.5 379.5t375.5 150.5q221 0 359 -139.5t138 -360.5v-20q-2 -41 -16.5 -60.5t-52.5 -19.5h-691q14 -111 93 -174.5t198 -63.5q197 0 283 148q2 4 35.5 -4.5t68.5 -41t35 -83.5q0 -88 -117.5 -159t-314.5 -71q-246 0 -393.5 141.5t-147.5 377.5zM264 1204 q0 84 118 188.5t193 123.5q74 -18 192 -123t118 -189q0 -39 -25.5 -64.5t-66.5 -25.5q-100 0 -220 207q-115 -207 -215 -207q-41 0 -67.5 25.5t-26.5 64.5zM315 590h492q-4 104 -66.5 167.5t-167.5 63.5q-100 0 -171 -64.5t-87 -166.5z" />
<glyph unicode="&#xeb;" horiz-adv-x="1126" d="M55 492q0 229 147.5 379.5t375.5 150.5q221 0 359 -139.5t138 -360.5v-20q-2 -41 -16.5 -60.5t-52.5 -19.5h-691q14 -111 93 -174.5t198 -63.5q197 0 283 148q2 4 35.5 -4.5t68.5 -41t35 -83.5q0 -88 -117.5 -159t-314.5 -71q-246 0 -393.5 141.5t-147.5 377.5z M219 1261.5q0 69.5 40 108.5t106 39q72 0 111.5 -39t39.5 -108.5t-39 -108.5t-106 -39q-70 0 -111 39t-41 108.5zM315 590h492q-4 104 -66.5 167.5t-167.5 63.5q-100 0 -171 -64.5t-87 -166.5zM635 1261.5q0 69.5 39 108.5t106 39q70 0 111 -39t41 -108.5t-40 -108.5 t-106 -39q-72 0 -111.5 39t-39.5 108.5z" />
<glyph unicode="&#xec;" d="M-51 1372q0 47 38 80t93 33q49 0 102 -35q61 -39 122 -108.5t91.5 -125t22.5 -69.5t-64.5 -15.5t-143.5 19t-161 66.5q-100 61 -100 155zM117 129v741q0 139 129 140h30q129 0 130 -140v-741q0 -137 -127 -137h-31q-131 0 -131 137z" />
<glyph unicode="&#xed;" d="M108.5 1147q-8.5 14 22.5 69.5t91.5 125t121.5 108.5q53 35 102 35q55 0 93.5 -33t38.5 -80q0 -94 -101 -155q-74 -45 -161 -66t-143 -19.5t-64.5 15.5zM117 129v741q0 139 129 140h30q129 0 130 -140v-741q0 -137 -127 -137h-31q-131 0 -131 137z" />
<glyph unicode="&#xee;" d="M-47 1204q0 84 117.5 188.5t193.5 123.5q74 -18 191.5 -123t117.5 -189q0 -39 -25.5 -64.5t-66.5 -25.5q-100 0 -219 207q-115 -207 -215 -207q-41 0 -67.5 25.5t-26.5 64.5zM117 129v741q0 139 129 140h30q129 0 130 -140v-741q0 -137 -127 -137h-31q-131 0 -131 137z " />
<glyph unicode="&#xef;" d="M-92 1261.5q0 69.5 40 108.5t105 39q72 0 112 -39t40 -108.5t-39 -108.5t-107 -39q-70 0 -110.5 39t-40.5 108.5zM117 129v741q0 139 129 140h30q129 0 130 -140v-741q0 -137 -127 -137h-31q-131 0 -131 137zM324 1261.5q0 69.5 38.5 108.5t106.5 39q70 0 111 -39 t41 -108.5t-40 -108.5t-106 -39q-72 0 -111.5 39t-39.5 108.5z" />
<glyph unicode="&#xf0;" horiz-adv-x="1226" d="M63 463q0 209 133.5 340t346.5 131q106 0 192 -46t133 -116q-49 219 -227 361l-203 -109q-102 -53 -139 35l-4 10q-35 84 57 133l84 43q-94 39 -233 60q-12 2 0 43t67.5 81.5t143.5 40.5q154 0 305 -81l209 108q82 41 139 -35l6 -8q25 -33 9.5 -69.5t-66.5 -63.5 l-121 -64q266 -256 266 -655q0 -291 -155.5 -460t-411.5 -169q-242 0 -386.5 130.5t-144.5 359.5zM342 467q0 -121 70.5 -193.5t185.5 -72.5q125 0 196.5 83t71.5 218v84q-33 59 -104.5 101t-151.5 42q-127 0 -197.5 -70.5t-70.5 -191.5z" />
<glyph unicode="&#xf1;" horiz-adv-x="1189" d="M109 129v848q0 4 14 12t40.5 14.5t53.5 6.5q147 0 174 -164q119 176 330 176q186 0 278.5 -114.5t92.5 -299.5v-479q0 -137 -127 -137h-31q-131 0 -131 137v436q0 100 -48 157.5t-137 57.5q-152 0 -221 -131v-520q0 -137 -127 -137h-30q-131 0 -131 137zM256 1219 q0 90 53 150.5t129 60.5q135 0 287 -142q43 133 117 133q43 0 69.5 -27.5t26.5 -70.5q0 -90 -53.5 -149.5t-128.5 -59.5q-137 0 -287 139q-43 -133 -117 -133q-43 0 -69.5 28t-26.5 71z" />
<glyph unicode="&#xf2;" horiz-adv-x="1179" d="M55 500q0 231 149.5 376.5t387.5 145.5q236 0 384 -146.5t148 -380t-148.5 -378t-387.5 -144.5q-238 0 -385.5 145.5t-147.5 381.5zM258 1372q0 47 38 80t93 33q49 0 103 -35q61 -39 121.5 -108.5t91 -125t22.5 -69.5t-64.5 -15.5t-143.5 19t-161 66.5q-100 61 -100 155z M309 500q0 -131 80 -215t201 -84t199.5 84t78.5 211q0 131 -78.5 216t-199.5 85t-201 -84t-80 -213z" />
<glyph unicode="&#xf3;" horiz-adv-x="1179" d="M55 500q0 231 149.5 376.5t387.5 145.5q236 0 384 -146.5t148 -380t-148.5 -378t-387.5 -144.5q-238 0 -385.5 145.5t-147.5 381.5zM309 500q0 -131 80 -215t201 -84t199.5 84t78.5 211q0 131 -78.5 216t-199.5 85t-201 -84t-80 -213zM454.5 1147q-8.5 14 22.5 69.5 t91.5 125t121.5 108.5q53 35 103 35q55 0 93 -33t38 -80q0 -94 -101 -155q-74 -45 -161 -66t-143 -19.5t-64.5 15.5z" />
<glyph unicode="&#xf4;" horiz-adv-x="1179" d="M55 500q0 231 149.5 376.5t387.5 145.5q236 0 384 -146.5t148 -380t-148.5 -378t-387.5 -144.5q-238 0 -385.5 145.5t-147.5 381.5zM281 1204q0 84 117.5 188.5t193.5 123.5q74 -18 191.5 -123t117.5 -189q0 -39 -25.5 -64.5t-66.5 -25.5q-100 0 -219 207 q-115 -207 -215 -207q-41 0 -67.5 25.5t-26.5 64.5zM309 500q0 -131 80 -215t201 -84t199.5 84t78.5 211q0 131 -78.5 216t-199.5 85t-201 -84t-80 -213z" />
<glyph unicode="&#xf5;" horiz-adv-x="1179" d="M55 500q0 231 149.5 376.5t387.5 145.5q236 0 384 -146.5t148 -380t-148.5 -378t-387.5 -144.5q-238 0 -385.5 145.5t-147.5 381.5zM252 1219q0 90 53 150.5t129 60.5q135 0 287 -142q43 133 117 133q43 0 69.5 -27.5t26.5 -70.5q0 -90 -53.5 -149.5t-128.5 -59.5 q-137 0 -287 139q-43 -133 -117 -133q-43 0 -69.5 28t-26.5 71zM309 500q0 -131 80 -215t201 -84t199.5 84t78.5 211q0 131 -78.5 216t-199.5 85t-201 -84t-80 -213z" />
<glyph unicode="&#xf6;" horiz-adv-x="1179" d="M55 500q0 231 149.5 376.5t387.5 145.5q236 0 384 -146.5t148 -380t-148.5 -378t-387.5 -144.5q-238 0 -385.5 145.5t-147.5 381.5zM236 1261.5q0 69.5 39.5 108.5t105.5 39q72 0 111.5 -39t39.5 -108.5t-38.5 -108.5t-106.5 -39q-70 0 -110.5 39t-40.5 108.5zM309 500 q0 -131 80 -215t201 -84t199.5 84t78.5 211q0 131 -78.5 216t-199.5 85t-201 -84t-80 -213zM651 1261.5q0 69.5 39 108.5t107 39q70 0 110.5 -39t40.5 -108.5t-40 -108.5t-105 -39q-72 0 -112 39t-40 108.5z" />
<glyph unicode="&#xf7;" horiz-adv-x="1228" d="M123 524v15q0 104 119 104h743q119 0 119 -104v-15q0 -106 -119 -106h-743q-119 0 -119 106zM477 145v25q0 121 119 121h33q121 0 121 -121v-25q0 -119 -121 -118h-33q-119 -1 -119 118zM477 893v25q0 121 119 120h33q121 0 121 -120v-25q0 -119 -121 -119h-33 q-119 0 -119 119z" />
<glyph unicode="&#xf8;" horiz-adv-x="1179" d="M39 -25q0 43 47 93l88 98q-109 137 -108 330q0 223 151.5 374.5t378.5 151.5q152 0 285 -80l155 174q6 6 35 -3t56.5 -33.5t27.5 -55.5q0 -41 -45 -94l-94 -105q109 -141 108 -325q0 -223 -151.5 -375t-380.5 -152q-158 0 -281 76l-153 -168q-6 -6 -35 3.5t-56.5 34.5 t-27.5 56zM309 498q0 -86 43 -160l383 420q-63 45 -141 45q-123 0 -204 -87t-81 -218zM455 240q61 -45 139 -45q123 0 204 86t81 217q0 90 -45 157l-95 -104q-94 -104 -190 -207z" />
<glyph unicode="&#xf9;" horiz-adv-x="1189" d="M100 387v483q0 139 127 140h31q131 0 131 -140v-440q0 -100 49 -157.5t140 -57.5q145 0 215 131v524q0 139 129 140h28q131 0 131 -140v-845q0 -6 -14 -13.5t-41 -13.5t-53 -6q-145 0 -174 158q-119 -176 -328 -177q-186 0 -278.5 115t-92.5 299zM260 1372q0 47 38 80 t93 33q49 0 103 -35q61 -39 121.5 -108.5t91 -125t22.5 -69.5t-64.5 -15.5t-143.5 19t-161 66.5q-100 61 -100 155z" />
<glyph unicode="&#xfa;" horiz-adv-x="1189" d="M100 387v483q0 139 127 140h31q131 0 131 -140v-440q0 -100 49 -157.5t140 -57.5q145 0 215 131v524q0 139 129 140h28q131 0 131 -140v-845q0 -6 -14 -13.5t-41 -13.5t-53 -6q-145 0 -174 158q-119 -176 -328 -177q-186 0 -278.5 115t-92.5 299zM467 1147 q-8 14 22.5 69.5t91 125t121.5 108.5q53 35 103 35q55 0 93 -33t38 -80q0 -94 -100 -155q-74 -45 -161 -66t-143.5 -19.5t-64.5 15.5z" />
<glyph unicode="&#xfb;" horiz-adv-x="1189" d="M100 387v483q0 139 127 140h31q131 0 131 -140v-440q0 -100 49 -157.5t140 -57.5q145 0 215 131v524q0 139 129 140h28q131 0 131 -140v-845q0 -6 -14 -13.5t-41 -13.5t-53 -6q-145 0 -174 158q-119 -176 -328 -177q-186 0 -278.5 115t-92.5 299zM285 1204 q0 84 117.5 188.5t193.5 123.5q74 -18 191.5 -123t117.5 -189q0 -39 -25.5 -64.5t-66.5 -25.5q-100 0 -219 207q-115 -207 -215 -207q-41 0 -67.5 25.5t-26.5 64.5z" />
<glyph unicode="&#xfc;" horiz-adv-x="1189" d="M100 387v483q0 139 127 140h31q131 0 131 -140v-440q0 -100 49 -157.5t140 -57.5q145 0 215 131v524q0 139 129 140h28q131 0 131 -140v-845q0 -6 -14 -13.5t-41 -13.5t-53 -6q-145 0 -174 158q-119 -176 -328 -177q-186 0 -278.5 115t-92.5 299zM242 1261.5 q0 69.5 40 108.5t105 39q72 0 112 -39t40 -108.5t-39 -108.5t-107 -39q-70 0 -110.5 39t-40.5 108.5zM657 1261.5q0 69.5 39 108.5t107 39q70 0 110.5 -39t40.5 -108.5t-40 -108.5t-105 -39q-72 0 -112 39t-40 108.5z" />
<glyph unicode="&#xfd;" horiz-adv-x="1087" d="M23 926q-4 8 17 28.5t60 39t80 18.5q117 0 162 -146l217 -571l193 569q45 147 159 148q37 0 77 -17.5t61.5 -37t17.5 -27.5l-455 -1182q-55 -141 -163 -141q-39 0 -78 17.5t-59.5 35.5t-16.5 27l166 376q-70 8 -94 66zM409.5 1136.5q-8.5 14.5 22.5 70t91.5 125 t121.5 108.5q53 35 103 35q55 0 93 -33t38 -80q0 -94 -101 -156q-74 -45 -161 -65.5t-143 -19.5t-64.5 15.5z" />
<glyph unicode="&#xfe;" horiz-adv-x="1251" d="M109 -260v1651q0 6 14 13t40.5 13t53.5 6q180 0 180 -231v-348q121 178 324 178q205 0 334 -143.5t129 -381t-128 -381t-339 -143.5q-102 0 -186.5 44t-133.5 112v-389q0 -139 -127 -139h-30q-131 0 -131 139zM397 442q0 -104 72 -171.5t178 -67.5q117 0 187.5 81 t70.5 214q0 131 -70.5 212t-185.5 81q-182 0 -252 -164v-185z" />
<glyph unicode="&#xff;" horiz-adv-x="1087" d="M23 926q-4 8 17 28.5t60 39t80 18.5q117 0 162 -146l217 -571l193 569q45 147 159 148q37 0 77 -17.5t61.5 -37t17.5 -27.5l-455 -1182q-55 -141 -163 -141q-39 0 -78 17.5t-59.5 35.5t-16.5 27l166 376q-70 8 -94 66zM195 1261.5q0 69.5 39.5 108.5t105.5 39 q72 0 112 -39t40 -108.5t-39 -108.5t-107 -39q-70 0 -110.5 39t-40.5 108.5zM610 1261.5q0 69.5 39 108.5t107 39q70 0 110.5 -39t40.5 -108.5t-40 -108.5t-105 -39q-72 0 -112 39t-40 108.5z" />
<glyph unicode="&#x152;" horiz-adv-x="2109" d="M72 661.5q0 303.5 192.5 497t491.5 193.5q113 0 207 -27h933q139 0 140 -127v-10q0 -127 -140 -127h-598q111 -96 125 -262h316q139 0 139 -117v-8q0 -123 -139 -123h-314q-8 -178 -129 -289h613q137 0 137 -119v-12q0 -131 -137 -131h-946q-94 -27 -209 -27 q-301 0 -491.5 192.5t-190.5 496zM373 664q0 -188 106.5 -305t276.5 -117t276.5 116.5t106.5 303.5q0 188 -107.5 305.5t-277.5 117.5t-275.5 -115.5t-105.5 -305.5z" />
<glyph unicode="&#x153;" horiz-adv-x="1939" d="M55 500q0 231 149.5 376.5t387.5 145.5q258 0 399 -193q141 193 400 193q221 0 359 -139.5t138 -360.5v-20q-2 -41 -16 -60.5t-53 -19.5h-691q14 -111 93 -174.5t198 -63.5q197 0 283 148q2 4 36 -4.5t68.5 -41t34.5 -83.5q0 -88 -117.5 -159t-314.5 -71q-291 0 -426 187 q-141 -186 -395 -187q-238 0 -385.5 145.5t-147.5 381.5zM309 500q0 -131 80 -215t201 -84t199.5 84t78.5 211q0 131 -78.5 216t-199.5 85t-201 -84t-80 -213zM1128 590h492q-4 104 -66.5 167.5t-167.5 63.5q-100 0 -171 -64.5t-87 -166.5z" />
<glyph unicode="&#x178;" horiz-adv-x="1234" d="M4 1217q-6 10 10.5 36.5t65.5 53t117 26.5q86 0 143 -104l278 -457l283 455q61 106 146 106q61 0 108 -26.5t64.5 -54t11.5 -35.5l-461 -685v-403q0 -137 -133 -137h-41q-129 0 -129 137v403zM260 1591.5q0 69.5 40 108.5t106 39q72 0 111.5 -39t39.5 -108.5t-39 -108.5 t-106 -39q-70 0 -111 39t-41 108.5zM676 1591.5q0 69.5 39 108.5t106 39q70 0 111 -39t41 -108.5t-40 -108.5t-106 -39q-72 0 -111.5 39t-39.5 108.5z" />
<glyph unicode="&#x2c6;" horiz-adv-x="1024" d="M201 1204q0 84 117.5 188.5t193.5 123.5q74 -18 191.5 -123t117.5 -189q0 -39 -25.5 -64.5t-66.5 -25.5q-100 0 -219 207q-115 -207 -215 -207q-41 0 -67.5 25.5t-26.5 64.5z" />
<glyph unicode="&#x2dc;" horiz-adv-x="1024" d="M170 1219q0 90 53 150.5t129 60.5q135 0 287 -142q43 133 117 133q43 0 69.5 -27.5t26.5 -70.5q0 -90 -53.5 -149.5t-128.5 -59.5q-137 0 -287 139q-43 -133 -117 -133q-43 0 -69.5 28t-26.5 71z" />
<glyph unicode="&#x2000;" horiz-adv-x="921" />
<glyph unicode="&#x2001;" horiz-adv-x="1845" />
<glyph unicode="&#x2002;" horiz-adv-x="921" />
<glyph unicode="&#x2003;" horiz-adv-x="1845" />
<glyph unicode="&#x2004;" horiz-adv-x="614" />
<glyph unicode="&#x2005;" horiz-adv-x="460" />
<glyph unicode="&#x2006;" horiz-adv-x="307" />
<glyph unicode="&#x2007;" horiz-adv-x="307" />
<glyph unicode="&#x2008;" horiz-adv-x="229" />
<glyph unicode="&#x2009;" horiz-adv-x="368" />
<glyph unicode="&#x200a;" horiz-adv-x="102" />
<glyph unicode="&#x2010;" horiz-adv-x="876" d="M74 479v43q0 47 30.5 79t88.5 32h491q57 0 88 -32t31 -79v-43q0 -49 -31 -79.5t-88 -30.5h-491q-57 0 -88 30.5t-31 79.5z" />
<glyph unicode="&#x2011;" horiz-adv-x="876" d="M74 479v43q0 47 30.5 79t88.5 32h491q57 0 88 -32t31 -79v-43q0 -49 -31 -79.5t-88 -30.5h-491q-57 0 -88 30.5t-31 79.5z" />
<glyph unicode="&#x2012;" horiz-adv-x="876" d="M74 479v43q0 47 30.5 79t88.5 32h491q57 0 88 -32t31 -79v-43q0 -49 -31 -79.5t-88 -30.5h-491q-57 0 -88 30.5t-31 79.5z" />
<glyph unicode="&#x2013;" horiz-adv-x="1138" d="M74 489v25q0 47 29.5 78t89.5 31h743q59 0 89 -31t30 -78v-25q0 -49 -30 -79.5t-89 -30.5h-743q-59 0 -89 30.5t-30 79.5z" />
<glyph unicode="&#x2014;" horiz-adv-x="1474" d="M74 489v25q0 47 29.5 78t89.5 31h1089q59 0 89 -31t30 -78v-25q0 -49 -30 -79.5t-89 -30.5h-1089q-59 0 -89 30.5t-30 79.5z" />
<glyph unicode="&#x2018;" horiz-adv-x="479" d="M59 934v10q0 74 68 156l162 223q37 43 99.5 19.5t47.5 -85.5l-92 -323q-18 -70 -45 -98.5t-92 -28.5h-31q-117 0 -117 127z" />
<glyph unicode="&#x2019;" horiz-adv-x="479" d="M45 899l92 326q16 70 43 97.5t94 27.5h29q117 0 117 -125v-13q0 -78 -66 -153l-164 -225q-37 -43 -98 -18.5t-47 83.5z" />
<glyph unicode="&#x201a;" horiz-adv-x="479" d="M33 -158l92 326q18 70 45 97.5t94 27.5h29q117 0 117 -125v-12q0 -80 -68 -154l-162 -225q-37 -41 -99 -17.5t-48 82.5z" />
<glyph unicode="&#x201c;" horiz-adv-x="890" d="M59 934v10q0 76 68 156l162 223q37 43 99.5 19.5t47.5 -85.5l-94 -323q-16 -72 -43 -99.5t-92 -27.5h-31q-117 0 -117 127zM473 934v10q0 78 66 156l161 223q39 43 100.5 19.5t47.5 -85.5l-92 -323q-16 -70 -44 -98.5t-94 -28.5h-30q-115 0 -115 127z" />
<glyph unicode="&#x201d;" horiz-adv-x="890" d="M43 899l92 326q16 70 44 97.5t93 27.5h31q115 0 115 -125v-13q0 -82 -66 -153l-162 -225q-37 -41 -99 -17.5t-48 82.5zM455 899l94 326q18 70 43.5 97.5t91.5 27.5h33q115 0 114 -125v-13q0 -76 -65 -153l-164 -225q-37 -43 -99 -18.5t-48 83.5z" />
<glyph unicode="&#x201e;" horiz-adv-x="890" d="M33 -158l92 326q16 70 43 97.5t94 27.5h29q117 0 117 -125v-12q0 -78 -66 -154l-164 -225q-37 -43 -98 -18.5t-47 83.5zM444 -158l93 326q18 70 43.5 97.5t93.5 27.5h31q115 0 114 -125v-12q0 -76 -65 -154l-162 -225q-37 -43 -100.5 -18.5t-47.5 83.5z" />
<glyph unicode="&#x2022;" horiz-adv-x="710" d="M94 501.5q0 112.5 76 190.5t186.5 78t186 -78t75.5 -190q0 -109 -76.5 -186.5t-185.5 -77.5q-113 0 -187.5 75.5t-74.5 188z" />
<glyph unicode="&#x2026;" horiz-adv-x="1466" d="M88 121v29q0 135 135 135h37q139 0 139 -135v-29q0 -135 -139 -135h-37q-135 0 -135 135zM578 121v29q0 135 135 135h37q139 0 139 -135v-29q0 -135 -139 -135h-37q-135 0 -135 135zM1065 121v29q0 135 137 135h35q139 0 139 -135v-29q0 -135 -139 -135h-35 q-137 0 -137 135z" />
<glyph unicode="&#x202f;" horiz-adv-x="368" />
<glyph unicode="&#x2039;" horiz-adv-x="651" d="M68 501.5q0 20.5 67.5 109.5t166.5 175t167 86h4q49 0 77 -28.5t28 -73.5v-6q0 -94 -277 -262q276 -174 277 -260v-9q0 -45 -28 -73.5t-77 -28.5h-4q-68 0 -167 86t-166.5 175t-67.5 109.5z" />
<glyph unicode="&#x203a;" horiz-adv-x="651" d="M76 233v9q0 90 276 260q-276 166 -276 262v6q0 45 27.5 73.5t76.5 28.5h2q68 0 168.5 -86t167 -175t66.5 -109.5t-66.5 -109.5t-167 -175t-168.5 -86h-2q-49 0 -76.5 28.5t-27.5 73.5z" />
<glyph unicode="&#x205f;" horiz-adv-x="460" />
<glyph unicode="&#x20ac;" horiz-adv-x="1292" d="M47 504v20q0 80 103 80h71v119h-71q-102 0 -103 82v20q0 80 103 80h90q47 209 194.5 328t362.5 119q197 0 317.5 -80t120.5 -187q0 -47 -34 -84.5t-67.5 -51t-39.5 -7.5q-59 84 -126 124t-171 40q-201 0 -269 -201h326q102 0 102 -80v-20q0 -82 -102 -82h-350v-119h350 q102 0 102 -80v-20q0 -80 -102 -80h-326q33 -96 105 -150.5t172 -54.5q104 0 170.5 43t120.5 131q6 8 40.5 -6t69.5 -52t35 -85q0 -100 -116.5 -188.5t-321.5 -88.5q-223 0 -371.5 119t-193.5 332h-88q-103 0 -103 80z" />
<glyph unicode="&#x2122;" horiz-adv-x="1415" d="M27 1249v6q0 72 77 72h424q80 0 80 -72v-6q0 -76 -80 -75h-125v-416q0 -80 -75 -80h-25q-72 0 -72 80v416h-127q-77 -1 -77 75zM686 758v491q0 84 74 84h59q57 0 80 -49l115 -278l112 278q23 49 78 49h60q74 0 73 -84v-491q0 -80 -69 -80h-25q-70 0 -69 80v327l-87 -239 q-4 -14 -8 -20.5t-20.5 -11.5t-46.5 -5q-12 0 -22.5 1t-16.5 1t-12 3l-9 4q-2 1 -5 6t-4 6t-3 7.5t-2 8.5l-90 235v-323q0 -80 -66 -80h-28q-68 0 -68 80z" />
<glyph unicode="&#xe000;" horiz-adv-x="1010" d="M0 1010h1010v-1010h-1010v1010z" />
<glyph unicode="&#xfb01;" horiz-adv-x="1304" d="M12 881v16q0 102 121 102h82v54q0 383 346 383q125 0 189.5 -45t64.5 -113q0 -31 -14.5 -61.5t-29.5 -45t-17 -10.5q-57 53 -138 53q-63 0 -92.5 -37.5t-29.5 -123.5v-54h129q121 0 120 -106v-19q0 -100 -120 -100h-119v-645q0 -76 -33 -106.5t-96 -30.5h-31 q-129 0 -129 137v645h-82q-121 1 -121 107zM883 1313q0 68 42 106.5t117 38.5q78 0 120 -38t42 -107.5t-43 -108.5t-117 -39q-76 0 -118.5 39t-42.5 109zM897 129v741q0 139 131 140h29q131 0 131 -140v-741q0 -137 -129 -137h-29q-133 0 -133 137z" />
<glyph unicode="&#xfb02;" horiz-adv-x="1304" d="M12 881v16q0 102 121 102h82v54q0 383 346 383q125 0 189.5 -45t64.5 -113q0 -31 -14.5 -61.5t-29.5 -45t-17 -10.5q-57 53 -138 53q-63 0 -92.5 -37.5t-29.5 -123.5v-54h129q121 0 120 -106v-19q0 -100 -120 -100h-119v-645q0 -76 -33 -106.5t-96 -30.5h-31 q-129 0 -129 137v645h-82q-121 1 -121 107zM897 129v1262q0 6 14.5 13t41 13t55.5 6q76 0 128 -52t52 -179v-1063q0 -137 -129 -137h-29q-133 0 -133 137z" />
<glyph unicode="&#xfb03;" horiz-adv-x="2082" d="M1661 1313q0 68 43 106.5t119 38.5t119 -38t43 -107.5t-43 -108.5t-119 -39t-119 39t-43 109zM1678 129v741q0 139 129 140h30q129 0 130 -140v-741q0 -137 -127 -137h-31q-131 0 -131 137zM792 881v16q0 102 121 102h82v54q0 383 346 383q125 0 189.5 -45t64.5 -113 q0 -31 -14.5 -61.5t-29.5 -45t-17 -10.5q-57 53 -138 53q-63 0 -92.5 -37.5t-29.5 -123.5v-54h129q121 0 120 -106v-19q0 -100 -120 -100h-119v-645q0 -76 -33 -106.5t-96 -30.5h-31q-129 0 -129 137v645h-82q-121 1 -121 107zM12 881v16q0 102 121 102h82v54q0 383 346 383 q125 0 189.5 -45t64.5 -113q0 -31 -14.5 -61.5t-29.5 -45t-17 -10.5q-57 53 -138 53q-63 0 -92.5 -37.5t-29.5 -123.5v-54h129q121 0 120 -106v-19q0 -100 -120 -100h-119v-645q0 -76 -33 -106.5t-96 -30.5h-31q-129 0 -129 137v645h-82q-121 1 -121 107z" />
<glyph unicode="&#xfb04;" horiz-adv-x="2082" d="M1678 129v1262q0 6 14 13t41 13t53 6q180 0 181 -231v-1063q0 -137 -127 -137h-31q-131 0 -131 137zM792 881v16q0 102 121 102h82v54q0 383 346 383q125 0 189.5 -45t64.5 -113q0 -31 -14.5 -61.5t-29.5 -45t-17 -10.5q-57 53 -138 53q-63 0 -92.5 -37.5t-29.5 -123.5 v-54h129q121 0 120 -106v-19q0 -100 -120 -100h-119v-645q0 -76 -33 -106.5t-96 -30.5h-31q-129 0 -129 137v645h-82q-121 1 -121 107zM12 881v16q0 102 121 102h82v54q0 383 346 383q125 0 189.5 -45t64.5 -113q0 -31 -14.5 -61.5t-29.5 -45t-17 -10.5q-57 53 -138 53 q-63 0 -92.5 -37.5t-29.5 -123.5v-54h129q121 0 120 -106v-19q0 -100 -120 -100h-119v-645q0 -76 -33 -106.5t-96 -30.5h-31q-129 0 -129 137v645h-82q-121 1 -121 107z" />
</font>
</defs>
</svg>
